Сегодня идет свободное скачивание без начисления Download

Военнопленный / Заложники войны / Хатуфим / Hatufim / Prisoners of war / Сезон: 2 / Серии: 1-6 из 14 (Гидеон Рафф) [2012, драма, WEB-DLRip] VO (DexterTV)

Ответить на тему
 
Автор
Сообщение

Omen ®

Стаж: 5 лет 10 месяцев

Сообщений: 184329

Торрент-статистика

Пост 19-Фев-2016 18:36

[Цитировать]

Военнопленный / Заложники войны / Хатуфим / Hatufim / Prisoners of war-2 сезон, 1-6 серии Год выпуска: 2012
Страна: Израиль
Жанр: драма
Продолжительность: ~ 01:00:00
Перевод: Любительский (одноголосый закадровый) DexterTV
Режиссёр: Гидеон Рафф
В ролях: Галь Зайд, Яэль Эйтан, Салим Дау, Сэнди Бар, Хадар Ратсон Ротем, Яэль Абекассис, Мили Авитал, Асси Коэн, Ади Эзрони, Ишай Гола
Описание: Сериал "Заложники войны" - Израильский оригинал американского "Homeland". История о двух солдатах, которые были освобождены из 17-летнего плена. Теперь они вынуждены приспособиться к своей внезапной свободе.
Ссылка на предыдущие и альтернативные раздачи: http:///*spam*//forum/tracker.php?nm=Hatufim
Сэмпл: http://multi-up.com/1065575
Качество: WEB-DLRip
Формат: AVI
Видео: 720x400, 1115 Kbps, 23.976 fps, 0.134 bit/pixel
Аудио: MP3, 48 kHz, 2 ch, 192 kbps
Субтитры: отсутствуют

Список серий

01. Goodbye Sweetie
02. Birthday
03. Little Lies
04. Blue
05. Company Secretary
06. Beaches

MediaInfo

Format : AVI
Format/Info : Audio Video Interleave
File size : 503 MiB
Duration : 1h 3mn
Overall bit rate : 1 115 Kbps
Writing application : VirtualDubMod 1.5.10.3 | www.virtualdub-fr.org || (build 2550/release)
Writing library : VirtualDubMod build 2550/release
Video
ID : 0
Format : MPEG-4 Visual
Format profile : Advanced Simple@L5
Format settings, BVOP : 1
Format settings, QPel : No
Format settings, GMC : No warppoints
Format settings, Matrix : Default (MPEG)
Codec ID : XVID
Codec ID/Hint : XviD
Duration : 1h 3mn
Bit rate : 914 Kbps
Width : 720 pixels
Height : 400 pixels
Display aspect ratio : 16:9
Frame rate : 23.976 fps
Color space : YUV
Chroma subsampling : 4:2:0
Bit depth : 8 bits
Scan type : Progressive
Compression mode : Lossy
Bits/(Pixel*Frame) : 0.132
Stream size : 412 MiB (82%)
Writing library : XviD 1.2.1 (UTC 2008-12-04)
Audio
ID : 1
Format : MPEG Audio
Format version : Version 1
Format profile : Layer 3
Codec ID : 55
Codec ID/Hint : MP3
Duration : 1h 3mn
Bit rate mode : Constant
Bit rate : 192 Kbps
Channel(s) : 2 channels
Sampling rate : 48.0 KHz
Compression mode : Lossy
Stream size : 86.5 MiB (17%)
Alignment : Aligned on interleaves
Interleave, duration : 42 ms (1.00 video frame)
Interleave, preload duratio : 504 ms
Writing library : LAME3.99r

Скриншоты

Вне форума [Профиль] [ЛС]
Похожие темы
Форум Тема Автор Торрент Отв. Посл. сообщение
./templates/default/images/folder_dl.gif Архив Военно-историческая библиотека (Книжная подборка) [2001-2006] [PDF, DJVU] Omen
0 | 1

0 | 1667

3

2011-07-30 13:36
Omen Последнее
./templates/default/images/folder_dl.gif Музыка других жанров VA - 9 мая День Победы - 65 лет 1945-2010 (2010) [MP3|320 kbps]<Военная песня> Varius
1 | 0

0 | 1994

24

2012-05-08 15:10
Varius Последнее
./templates/default/images/folder_dl.gif Фильмы до 2000 года А зори здесь тихие (Станислав Ростоцкий, 1972) [Полная широкоэкранная версия] (Драма, Военный, История) DVDRip Omen
1 | 0

1 | 1698

22

2013-05-09 18:34
aleksart Последнее
./templates/default/images/folder_dl.gif ЖЗЛ. Биографии. Мемуары. Историография. Военно-исторический журнал "Воин" [2010-11, PDF, RUS] - обновлено 17.05.2016 добавлен "Воин" №15 (2011-01) Omen
0 | 1

0 | 1546

0

2016-05-17 18:33
Omen Последнее
./templates/default/images/folder_dl.gif Отечественные cериалы Операция «Горгона» / Серии: 1-4 из 4 (Владимир Котт) [2011, боевик, драма, военный, WEBRip (1080p)] Omen
1 | 0

0 | 1195

9

2016-08-18 01:00
Omen Последнее
./templates/default/images/folder_dl.gif Новинки (HD|DVD|BD|WEB|TV|SAT|PDTV|-Rip) Рубеж (Дмитрий Тюрин) [2018, фантастика, приключения, военный, драма, WEB-DLRip] | iTunes Theseus
1 | 0

0 | 599

15

2018-04-05 12:50
Theseus Последнее
./templates/default/images/folder_dl.gif Новинки (HD|DVD|BD|WEB|TV|SAT|PDTV|-Rip) Прощаться не будем (Павел Дроздов) [2018 г., военный, драма, история, WEB-DLRip] kukin
1 | 0

0 | 483

12

2018-07-21 16:53
kukin Последнее
Показать сообщения:    
Ответить на тему

Текущее время: Сегодня 10:26

Часовой пояс: GMT + 3



Вы не можете начинать темы
Вы не можете отвечать на сообщения
Вы не можете редактировать свои сообщения
Вы не можете удалять свои сообщения
Вы не можете голосовать в опросах
Вы не можете прикреплять файлы к сообщениям
Вы не можете скачивать файлы