Сегодня идет свободное скачивание без начисления Download

Военнопленный / Заложники войны / Хатуфим / Hatufim / Prisoners of war / Сезон: 2 / Серии: 1-6 из 14 (Гидеон Рафф) [2012, драма, WEB-DLRip] VO (DexterTV)

Ответить на тему
 
Автор
Сообщение

Omen ®

Стаж: 6 лет 1 месяц

Сообщений: 184308

Торрент-статистика

Пост 19-Фев-2016 18:36

[Цитировать]

Военнопленный / Заложники войны / Хатуфим / Hatufim / Prisoners of war-2 сезон, 1-6 серии Год выпуска: 2012
Страна: Израиль
Жанр: драма
Продолжительность: ~ 01:00:00
Перевод: Любительский (одноголосый закадровый) DexterTV
Режиссёр: Гидеон Рафф
В ролях: Галь Зайд, Яэль Эйтан, Салим Дау, Сэнди Бар, Хадар Ратсон Ротем, Яэль Абекассис, Мили Авитал, Асси Коэн, Ади Эзрони, Ишай Гола
Описание: Сериал "Заложники войны" - Израильский оригинал американского "Homeland". История о двух солдатах, которые были освобождены из 17-летнего плена. Теперь они вынуждены приспособиться к своей внезапной свободе.
Ссылка на предыдущие и альтернативные раздачи: http:///*spam*//forum/tracker.php?nm=Hatufim
Сэмпл: http://multi-up.com/1065575
Качество: WEB-DLRip
Формат: AVI
Видео: 720x400, 1115 Kbps, 23.976 fps, 0.134 bit/pixel
Аудио: MP3, 48 kHz, 2 ch, 192 kbps
Субтитры: отсутствуют

Список серий

01. Goodbye Sweetie
02. Birthday
03. Little Lies
04. Blue
05. Company Secretary
06. Beaches

MediaInfo

Format : AVI
Format/Info : Audio Video Interleave
File size : 503 MiB
Duration : 1h 3mn
Overall bit rate : 1 115 Kbps
Writing application : VirtualDubMod 1.5.10.3 | www.virtualdub-fr.org || (build 2550/release)
Writing library : VirtualDubMod build 2550/release
Video
ID : 0
Format : MPEG-4 Visual
Format profile : Advanced Simple@L5
Format settings, BVOP : 1
Format settings, QPel : No
Format settings, GMC : No warppoints
Format settings, Matrix : Default (MPEG)
Codec ID : XVID
Codec ID/Hint : XviD
Duration : 1h 3mn
Bit rate : 914 Kbps
Width : 720 pixels
Height : 400 pixels
Display aspect ratio : 16:9
Frame rate : 23.976 fps
Color space : YUV
Chroma subsampling : 4:2:0
Bit depth : 8 bits
Scan type : Progressive
Compression mode : Lossy
Bits/(Pixel*Frame) : 0.132
Stream size : 412 MiB (82%)
Writing library : XviD 1.2.1 (UTC 2008-12-04)
Audio
ID : 1
Format : MPEG Audio
Format version : Version 1
Format profile : Layer 3
Codec ID : 55
Codec ID/Hint : MP3
Duration : 1h 3mn
Bit rate mode : Constant
Bit rate : 192 Kbps
Channel(s) : 2 channels
Sampling rate : 48.0 KHz
Compression mode : Lossy
Stream size : 86.5 MiB (17%)
Alignment : Aligned on interleaves
Interleave, duration : 42 ms (1.00 video frame)
Interleave, preload duratio : 504 ms
Writing library : LAME3.99r

Скриншоты

Вне форума [Профиль] [ЛС]
Похожие темы
Форум Тема Автор Торрент Отв. Посл. сообщение
./templates/default/images/folder_dl.gif Отечественные cериалы ОТРЫВ / Серии: 1-8 из 8 / (Сергей Попов) [2012, остросюжетная послевоенная драма, WEB-DLRip 720p] Omen
1 | 0

0 | 358

4

2013-06-03 00:25
Omen Последнее
./templates/default/images/folder_dl.gif Новинки (HD|DVD|BD|WEB|TV|SAT|PDTV|-Rip) Решение о ликвидации (Александр Аравин) [2018 г., военный, боевик, драма, WEB-DLRip] Sergeruss
1 | 0

0 | 494

14

2018-08-02 19:23
Sergeruss Последнее
Показать сообщения:    
Ответить на тему

Текущее время: Сегодня 04:44

Часовой пояс: GMT + 3



Вы не можете начинать темы
Вы не можете отвечать на сообщения
Вы не можете редактировать свои сообщения
Вы не можете удалять свои сообщения
Вы не можете голосовать в опросах
Вы не можете прикреплять файлы к сообщениям
Вы не можете скачивать файлы