Сегодня идет свободное скачивание без начисления Download

Пересекающиеся линии / Пересекая черту / Crossing Lines / Сезон: 3 / Серии: 1-12 из 12 (Дэниэл Персивал, Эрик Валетт, Энди Уилсон) [2015, боевик, драма, криминал, HDTV 720p] MVO (Sony Turbo) + Original

Ответить на тему
 
Автор
Сообщение

Omen ®

Стаж: 5 лет 9 месяцев

Сообщений: 184402

Торрент-статистика

Пост 19-Фев-2016 15:36

[Цитировать]

Пересекающиеся линии | Пересекая черту | Crossing Lines- Год выпуска: 2015
Страна: Франция, Германия, США
Студия: Bernero Productions, Sony Pictures Television International, Stillking Films, Tandem Communications, TF1 Production
Жанр: боевик, драма, криминал
Продолжительность: ~ 00:45:00
Перевод: Профессиональный (многоголосый закадровый) Sony Turbo-Режиссёр: Дэниэл Персивал, Эрик Валетт, Энди Уилсон
В ролях: Уильям Фихтнер, Дональд Сазерленд, Марк Лавуан, Ричард Флуд, Габриэлла Пессион, Том Влашиха, Мун Дайлли, Эльза Молльен, Клаудия Васекова, Марко Бонини-Описание: С формированием Европейского Союза для упрощения торговли и путешествий были открыты границы. Однако это имело и другое последствие: взрыв международной преступности. При таких условиях преступники могут сбегать в любую страну и спрятаться в любом городе. В мире, где самые опасные персоны могут пересекать столько границ, элитное спецподразделение, каждый член которого избирался исходя из его особенных навыков, должно провести под этим черту...- -Релиз:
Запись звука: Justin, SerGV
Сведение звука: SerGV
Источник: Crossing.Lines.S03.720p.HDTV.x264-SKGTV-Семпл - [/url][url=http://multi-up.com/1074666]http://multi-up.com/1074666-Качество: HDTV 720p
Формат: MKV
Видео кодек: MPEG-4 AVC
Аудио кодек: AC3
Видео: MPEG-4 AVC, ~2253 kbps, 1280x720 (16:9), 25.000 fps, 0.098 bit/pixel
Аудио #1: Russian: АС3, 48 kHz, 2 ch, ~192 kbps - Sony Turbo
Аудио #2: Englbsh: АС3, 48 kHz, 2 ch, ~192 kbps
Субтитры: Английские-

MediaInfo

General
Unique ID : 175370332089618562956225813678421708398 (0x83EF18EEBCEE9199938F2AA23E700E6E)
Complete name : ...Crossing.Lines.S03.720p.HDTV.CasStudio\Crossing Lines.S03E01-02.720p.HDTV.Rus.Eng.CasStudio.mkv
Format : Matroska
Format version : Version 4 / Version 2
File size : 1.40 GiB
Duration : 1h 14mn
Overall bit rate : 2 691 Kbps
Movie name : Crossing Lines (2015) S03E01-02 - Release by SerGV for CasStudio
Encoded date : UTC 2015-11-06 08:18:52
Writing application : mkvmerge v7.9.0 ('Birds') 32bit
Writing library : libebml v1.3.1 + libmatroska v1.4.2
Attachements : cover.jpg
Video
ID : 1
Format : AVC
Format/Info : Advanced Video Codec
Format profile : High@L4.1
Format settings, CABAC : Yes
Format settings, ReFrames : 5 frames
Codec ID : V_MPEG4/ISO/AVC
Duration : 1h 14mn
Bit rate : 2 253 Kbps
Width : 1 280 pixels
Height : 720 pixels
Display aspect ratio : 16:9
Frame rate mode : Constant
Frame rate : 25.000 fps
Color space : YUV
Chroma subsampling : 4:2:0
Bit depth : 8 bits
Scan type : Progressive
Bits/(Pixel*Frame) : 0.098
Stream size : 1.17 GiB (84%)
Writing library : x264 core 148 r2597 e86f3a1
Encoding settings : cabac=1 / ref=5 / deblock=1:0:0 / analyse=0x3:0x113 / me=umh / subme=8 / psy=1 / psy_rd=1.00:0.00 / mixed_ref=1 / me_range=16 / chroma_me=1 / trellis=1 / 8x8dct=1 / cqm=0 / deadzone=21,11 / fast_pskip=1 / chroma_qp_offset=-2 / threads=12 / lookahead_threads=2 / sliced_threads=0 / nr=0 / decimate=1 / interlaced=0 / bluray_compat=0 / constrained_intra=0 / bframes=3 / b_pyramid=2 / b_adapt=2 / b_bias=0 / direct=3 / weightb=1 / open_gop=0 / weightp=2 / keyint=250 / keyint_min=25 / scenecut=40 / intra_refresh=0 / rc_lookahead=50 / rc=crf / mbtree=1 / crf=18.0 / qcomp=0.60 / qpmin=0 / qpmax=69 / qpstep=4 / ip_ratio=1.40 / aq=1:1.00
Language : English
Default : Yes
Forced : No
Color range : Limited
Matrix coefficients : BT.709
Audio #1
ID : 2
Format : AC-3
Format/Info : Audio Coding 3
Mode extension : CM (complete main)
Format settings, Endianness : Big
Codec ID : A_AC3
Duration : 1h 14mn
Bit rate mode : Constant
Bit rate : 192 Kbps
Channel(s) : 2 channels
Channel positions : Front: L R
Sampling rate : 48.0 KHz
Compression mode : Lossy
Stream size : 102 MiB (7%)
Title : DD 2.0 @ 192 kbps - Sony Turbo
Language : Russian
Default : Yes
Forced : No
Audio #2
ID : 3
Format : AC-3
Format/Info : Audio Coding 3
Mode extension : CM (complete main)
Format settings, Endianness : Big
Codec ID : A_AC3
Duration : 1h 14mn
Bit rate mode : Constant
Bit rate : 192 Kbps
Channel(s) : 2 channels
Channel positions : Front: L R
Sampling rate : 48.0 KHz
Compression mode : Lossy
Stream size : 102 MiB (7%)
Title : DD 2.0 @ 192 kbps - Original
Language : English
Default : No
Forced : No
Text
ID : 4
Format : UTF-8
Codec ID : S_TEXT/UTF8
Codec ID/Info : UTF-8 Plain Text
Language : English
Default : No
Forced : No

Скриншоты

Ссылка на предыдущие и альтернативные раздачи

http:///*spam*//forum/tracker.php?f=189,2366&a...Crossing%20Lines

Раздача ведется путем добавления новых серий

Когда раздача ведётся путём добавления новых серий, при каждом добавлении создётся новый торрент. Чтобы начать докачку новой серии, пользователям необходимо сделать следующее:
1. остановить скачивание,
2. удалить старый торрент у себя из клиента (старые серии удалять не надо),
3. скачать новый торрент и запустить его у себя в клиенте вместо старого, при этом указать клиенту путь в старую папку, куда и должно происходить скачивание новых серий.
Ваш клиент при этом должен произвести хеширование (проверку) старой папки (если не производит сам - помогите ему сделать это), и будет докачивать только те серии, которых у вас ещё нет. Старые серии при этом не удаляются, а продолжают раздаваться!
Eсли вы уже удалили старые серии, то предотвратить повторную закачку старых серий можно, отжав галочку в соответсвующих местах при запуске нового торрента. По возможности, желательно не удалять старые серии как можно дольше, чтобы релизёр не столько продолжал раздавать старые серии, а смог сконцентрироваться на новых.
Вне форума [Профиль] [ЛС]
Похожие темы
Форум Тема Автор Торрент Отв. Посл. сообщение
./templates/default/images/folder_dl.gif Обучающая и научно-популярная литература Мясников Александр - Вектор страха. Как перестать бояться рака и защититься от него [Сергеев Максим, 2015 г., 128 kbps, MP3] Omen
1 | 0

0 | 775

2

2015-12-26 12:10
Omen Последнее
Показать сообщения:    
Ответить на тему

Текущее время: Сегодня 08:02

Часовой пояс: GMT + 3



Вы не можете начинать темы
Вы не можете отвечать на сообщения
Вы не можете редактировать свои сообщения
Вы не можете удалять свои сообщения
Вы не можете голосовать в опросах
Вы не можете прикреплять файлы к сообщениям
Вы не можете скачивать файлы