Сегодня идет свободное скачивание без начисления Download

Колония / Colony / Сезон: 1 / Серии: 1-5 из 10 (Хуан Хосе Кампанелла) [2016, фантастика, WEB-DL 1080p] MVO (LostFilm) + Original

Ответить на тему
 
Автор
Сообщение

Omen ®

Стаж: 5 лет 11 месяцев

Сообщений: 184329

Торрент-статистика

Пост 18-Фев-2016 18:00

[Цитировать]

Колония / Colony
Год выпуска: 2016
Страна: США
Жанр: фантастика
Продолжительность: ~00:50:00
Перевод: Профессиональный (многоголосый закадровый) LostFilm
Режиссёр: Хуан Хосе Кампанелла
В ролях: Джош Холлоуэй, Сара Уэйн Кэллис, Аэдин Минкс, Чарльз Бэйкер, Тристен Бэнкстон, Том Бейер, Хилти Бауэн, Джонни Канниццаро, Джастин Чу-Кэри, Ной Крафт, Изабелла Крамп, Купер Дж. Фридман и др.
Описание: Недалекое будущее в постапокалиптическом мире человечество порабощено некоей силой внеземного происхождения. Бывшие города называются Блоками, а территория бывшего Лос-Анджелеса ограждена стеной высотой в сотни метров и патрулируется вооруженными силами, подчиняющимися марионеточному режиму Переходного правительства. Многие семьи разделены, действует постоянный комендантский час, а вооруженные патрули могут задержать кого угодно в любой момент. Люди пытались поднять восстание, но оно было безжалостно подавлено. Семья Боуменов — Уилл и Кэти — тайно поддерживает отношения и в условиях оккупации ищут потерявшегося сына. С бывшим агентом ФБР Боуменом связываются представители сил Сопротивления.-Альтернативные раздачи
Сэмпл-Качество: WEB-DL 1080p
Контейнер: MKV
Видео: H.264, 1920x1080, 16:9, 23.976 fps, ~5200 kbps
Аудио 1: RUS, AC-3, 48.0 kHz, 2 ch, 384 kbps | LostFilm
Аудио 2: ENG, AC-3, 48.0 kHz, 2 ch, 384 kbps | Оригинал
Субтитры: отсутствуют

Список серий

01. Пилот (Pilot)
02. О дивный новый мир (A Brave New World)
03. 98 секунд (98 Seconds)
04. Слепое пятно (Blind Spot)
05. Джеронимо (Geronimo)

MediaInfo

Format : Matroska
Format version : Version 4 / Version 2
File size : 2.09 GiB
Duration : 49mn 47s
Overall bit rate : 6 011 Kbps
Encoded date : UTC 2016-01-08 20:33:13
Writing application : mkvmerge v7.7.0 ('Six Voices') 64bit built on Feb 28 2015 23:39:33
Writing library : libebml v1.3.1 + libmatroska v1.4.2
DURATION : 00:49:47.104000000
NUMBER_OF_FRAMES : 93347
NUMBER_OF_BYTES : 143380992
_STATISTICS_WRITING_APP : mkvmerge v7.7.0 ('Six Voices') 64bit built on Feb 28 2015 23:39:33
_STATISTICS_WRITING_DATE_UTC : 2016-01-08 20:33:13
_STATISTICS_TAGS : BPS DURATION NUMBER_OF_FRAMES NUMBER_OF_BYTES
Video
ID : 1
Format : AVC
Format/Info : Advanced Video Codec
Format profile : High@L4.0
Format settings, CABAC : Yes
Format settings, ReFrames : 2 frames
Codec ID : V_MPEG4/ISO/AVC
Duration : 49mn 47s
Bit rate : 5 242 Kbps
Width : 1 920 pixels
Height : 1 080 pixels
Display aspect ratio : 16:9
Frame rate mode : Constant
Frame rate : 23.976 fps
Color space : YUV
Chroma subsampling : 4:2:0
Bit depth : 8 bits
Scan type : Progressive
Bits/(Pixel*Frame) : 0.105
Stream size : 1.78 GiB (85%)
Writing library : x264 core 112 r1834 a51816a
Encoding settings : cabac=1 / ref=1 / deblock=1:0:0 / analyse=0x3:0x133 / me=umh / subme=7 / psy=1 / psy_rd=1.00:0.00 / mixed_ref=0 / me_range=16 / chroma_me=1 / trellis=1 / 8x8dct=1 / cqm=0 / deadzone=21,11 / fast_pskip=1 / chroma_qp_offset=-2 / threads=6 / sliced_threads=0 / nr=0 / decimate=1 / interlaced=0 / constrained_intra=0 / bframes=5 / b_pyramid=0 / b_adapt=1 / b_bias=0 / direct=3 / weightb=1 / open_gop=0 / weightp=2 / keyint=250 / keyint_min=25 / scenecut=40 / intra_refresh=0 / rc_lookahead=40 / rc=2pass / mbtree=1 / bitrate=5242 / ratetol=1.0 / qcomp=0.60 / qpmin=0 / qpmax=51 / qpstep=4 / cplxblur=20.0 / qblur=0.5 / ip_ratio=1.40 / aq=1:1.00
Default : Yes
Forced : No
Audio #1
ID : 2
Format : AC-3
Format/Info : Audio Coding 3
Mode extension : CM (complete main)
Format settings, Endianness : Big
Codec ID : A_AC3
Duration : 49mn 47s
Bit rate mode : Constant
Bit rate : 384 Kbps
Channel(s) : 2 channels
Channel positions : Front: L R
Sampling rate : 48.0 KHz
Bit depth : 16 bits
Compression mode : Lossy
Stream size : 137 MiB (6%)
Default : Yes
Forced : No
Audio #2
ID : 3
Format : AC-3
Format/Info : Audio Coding 3
Mode extension : CM (complete main)
Format settings, Endianness : Big
Codec ID : A_AC3
Duration : 49mn 47s
Bit rate mode : Constant
Bit rate : 384 Kbps
Channel(s) : 2 channels
Channel positions : Front: L R
Sampling rate : 48.0 KHz
Bit depth : 16 bits
Compression mode : Lossy
Stream size : 137 MiB (6%)
Default : No
Forced : No

Скриншоты

Внимание! Раздача ведётся путём добавления новых серий

Внимание! Раздача ведётся путём добавления новых серий; при каждом добавлении создаётся новый торрент. Чтобы начать докачку новой серии, пользователям необходимо сделать следующее:
(1) остановить скачивание,
(2) удалить старый торрент у себя из клиента (старые серии удалять не надо),
(3) скачать новый торрент и запустить его у себя в клиенте вместо старого, при этом указать клиенту путь в старую папку куда и должно происходить скачивание новых серий.
Ваш клиент при этом должен произвести хеширование (проверку) старой папки (если не производит сам - помогите ему сделать это), и будет докачивать только те серии которых у вас ещё нет. Старые серии при этом не удаляются, а продолжают раздаваться!
Eсли вы уже удалили старые серии, то предотвратить повторную закачку старых серий можно, отжав галочку в соответствующих местах при запуске нового торрента. По возможности, желательно не удалять старые серии как можно дольше чтобы релизёр не столько продолжал раздавать старые серии, а смог сконцентрироваться на новых.
Вне форума [Профиль] [ЛС]
Показать сообщения:    
Ответить на тему

Текущее время: Сегодня 19:55

Часовой пояс: GMT + 3



Вы не можете начинать темы
Вы не можете отвечать на сообщения
Вы не можете редактировать свои сообщения
Вы не можете удалять свои сообщения
Вы не можете голосовать в опросах
Вы не можете прикреплять файлы к сообщениям
Вы не можете скачивать файлы