Сегодня идет свободное скачивание без начисления Download

Лучше звоните Солу/Позвони-ка Солу / Better Call Saul / Сезон: 2 / Серии: 1 из 10 (Адам Бернштейн, Лариса Кондрацки, Томас Шнауз) [2016, драма, комедия, криминал, HDTVRip 720p] Original + Rus Subs (Leprastyle) + Original

Ответить на тему
 
Автор
Сообщение

Omen ®

Стаж: 5 лет 11 месяцев

Сообщений: 184329

Торрент-статистика

Пост 17-Фев-2016 15:03

[Цитировать]

Лучше звоните Солу/Позвони-ка Солу / Better Call Saul
Год выпуска: 2016
Страна: США
Жанр: драма, комедия, криминал
Продолжительность: ~ 00:53:00
Перевод: Субтитры Leprastyle
Режиссёр: Адам Бернштейн, Лариса Кондрацки, Томас Шнауз
В ролях: Боб Оденкёрк, Ри Сихорн, Патрик Фабиан, Майкл МакКин, Майкл Мэндо, Джонатан Бэнкс, Ген Н. Чавес, Джил Мюррэй
Описание: Сол Гудман, известный нам по сериалу "Во все тяжкие", — пробивной, обходительный и при этом очень человечный адвокат, который готов рыть землю ради клиентов и своей американской мечты. Наконец-то ему улыбнулась удача. Открывается великолепная возможность адвокатской практики в серьезном офисе, о которой он всегда мечтал. Однако сможет ли усидеть за роскошным столом человек, у которого руки всегда чешутся нажать там, где написано "не выключать"?
Доп. информация:
Режиссёр: Колин Бакси, Адам Бернштейн, Винс Гиллиган
Качество: HDTVRip 720p
Контейнер: MKV
Видео: AVC | 1280x720p | 23.976 fps | 2639 Kbps
Аудио: A_AC3 | 48.0 KHz | 6 channels | 384 Kbps
Субтитры: английские — вложены в контейнер mkv
русские — srt (Leprastyle)

Список серий

1. Switch (Переключить)

MediaInfo

General
Complete name : E:\Saul\Better.Call.Saul.S02E01.Switch.mkv
Format : Matroska
File size : 1.01 GiB
Duration : 46mn 40s
Overall bit rate : 3 085 Kbps
Encoded date : UTC 2016-02-17 10:43:33
Writing application : mkvmerge v8.7.0 ('All of the above') 32bit
Writing library : libebml v1.3.3 + libmatroska v1.4.4
Video
ID : 1
Format : AVC
Format/Info : Advanced Video Codec
Format profile : High@L4.1
Format settings, CABAC : Yes
Format settings, ReFrames : 5 frames
Format settings, GOP : M=3, N=16
Codec ID : V_MPEG4/ISO/AVC
Duration : 46mn 40s
Bit rate : 2 639 Kbps
Width : 1 280 pixels
Height : 720 pixels
Display aspect ratio : 16:9
Frame rate : 23.976 fps
Color space : YUV
Chroma subsampling : 4:2:0
Bit depth : 8 bits
Scan type : Progressive
Bits/(Pixel*Frame) : 0.119
Stream size : 881 MiB (86%)
Writing library : x264 core 148 r2665 a01e339
Encoding settings : cabac=1 / ref=5 / deblock=1:0:0 / analyse=0x3:0x113 / me=umh / subme=8 / psy=1 / psy_rd=1.00:0.00 / mixed_ref=1 / me_range=16 / chroma_me=1 / trellis=1 / 8x8dct=1 / cqm=0 / deadzone=21,11 / fast_pskip=1 / chroma_qp_offset=-2 / threads=22 / lookahead_threads=3 / sliced_threads=0 / nr=0 / decimate=1 / interlaced=0 / bluray_compat=0 / constrained_intra=0 / bframes=3 / b_pyramid=2 / b_adapt=2 / b_bias=0 / direct=3 / weightb=1 / open_gop=0 / weightp=2 / keyint=250 / keyint_min=23 / scenecut=40 / intra_refresh=0 / rc_lookahead=50 / rc=crf / mbtree=1 / crf=18.0 / qcomp=0.60 / qpmin=0 / qpmax=69 / qpstep=4 / ip_ratio=1.40 / aq=1:1.00
Language : English
Matrix coefficients : BT.709-5, BT.1361, IEC 61966-2-4 709, SMPTE RP177
Audio
ID : 2
Format : AC-3
Format/Info : Audio Coding 3
Mode extension : CM (complete main)
Codec ID : A_AC3
Duration : 46mn 40s
Bit rate mode : Constant
Bit rate : 384 Kbps
Channel(s) : 6 channels
Channel positions : Front: L C R, Side: L R, LFE
Sampling rate : 48.0 KHz
Bit depth : 16 bits
Stream size : 128 MiB (12%)
Language : English
Text
ID : 3
Format : UTF-8
Codec ID : S_TEXT/UTF8
Codec ID/Info : UTF-8 Plain Text
Title : Better Call Saul - 02x01 - Switch.en
Language : English

Скриншоты

Вне форума [Профиль] [ЛС]
Похожие темы
Форум Тема Автор Торрент Отв. Посл. сообщение
./templates/default/images/folder_dl.gif Психология, Тренинг, Саморазвитие Лайфхакер | 55 светлых идей по улучшению себя и своей жизни. Путеводитель по саморазвитию (2018) [FB2] }{@R0N
2 | 0

0 | 420

10

2018-10-08 18:26
}{@R0N Последнее
Показать сообщения:    
Ответить на тему

Текущее время: Сегодня 07:12

Часовой пояс: GMT + 3



Вы не можете начинать темы
Вы не можете отвечать на сообщения
Вы не можете редактировать свои сообщения
Вы не можете удалять свои сообщения
Вы не можете голосовать в опросах
Вы не можете прикреплять файлы к сообщениям
Вы не можете скачивать файлы