Сегодня идет свободное скачивание без начисления Download

Изгои / Outsiders / Сезон 1 / Серии 1-3 (13) (Адам Бернштейн) [2016, драма, WEB-DLRip] MVO (AlexFilm)

Ответить на тему
 
Автор
Сообщение

Omen ®

Стаж: 5 лет 10 месяцев

Сообщений: 184329

Торрент-статистика

Пост 17-Фев-2016 15:00

[Цитировать]

--Изгои / Outsiders
1 сезон, 1-3 серии
-- Год выпуска: 2016
Страна: США
Жанр: драма
Продолжительность: ~54 мин
Перевод: профессиональный многоголосый закадровый (AlexFilm)-Режиссёры: Адам Бернштейн, Майкл Трим
В ролях: Даниэль Брикман, Кайл Галлнер, Эд Хиви, Джоанна МакГинли, Джексон Фрейзер, Марк Джеффри Миллер, Ребекка Харрис, Лори Клатшер, Дэвид Дэйл МакКью, Джефф Сейч-Описание: В основе сюжета семейство Фарреллов, которые живут в горах. Эта семья не похожа на все остальные, они тяготеют к уединению и стараются не подпускать близко к своему жилищу посторонних людей. Эти места являются таинственными и даже опасными для обычных людей, которые не привыкли к образу жизни Фарреллов, но это обстоятельство только на руку клану, ведь они не хотят, чтобы их жизнь стала достоянием общественности. Время от времени живописность этих мест привлекает богатых людей, которые мечтают владеть этим отдаленным от цивилизованного мира уголком земли. Но Фарреллы уже не единожды доказывали, что с ними шутки плохи. Пока, что им удавалось держать оборону, но будет ли так всегда? Их традиции и законы были придуманы много лет тому назад, до этого момента им удавалось соблюдать все, но теперь жизнь аутсайдеров изменилась, все больше людей пытается проникнуть на их территорию. Защищая свою землю, Фарреллы перейдут черту, за которой кроются самые ужасные поступки, совершаемые когда-либо человеком.-Релиз:
Перевод: Константин Кривоногов
Монтаж и сведение звука: Михаил Шорыгин
Роли озвучивали:
  • Наталья Ланц
  • Таисия Тришина
  • Михаил Суслов
  • Роман Сопко
  • Валерий Смекалов
  • Рустам Шайхиев
  • Михаил Шорыгин
  • Андрей Стакионис-Сэмпл: http://sendfile.su/1203796- -Качество: WEB-DLRip
    Формат: AVI
    Видео: 720x400 (1.80:1), 23.976 fps, XviD ~1400 kbps avg, 0.20 bit/pixel
    Аудио Rus: 48 kHz, MPEG Layer 3, 2 ch, ~128.00 kbps avg
    Аудио Eng: 48 kHz, MPEG Layer 3, 2 ch, ~128.00 kbps avg
    Субтитры: нет-

Скриншоты

MediaInfo

Формат : AVI
Формат/Информация : Audio Video Interleave
Размер файла : 649 Мбайт
Продолжительность : 54 м.
Общий поток : 1673 Кбит/сек
Название фильма : Outsiders 1x01 @ AlexFilm
Программа кодирования : VirtualDubMod 1.5.10.2 (build 2540/release)
Библиотека кодирования : VirtualDubMod build 2540/release
Видео
Идентификатор : 0
Формат : MPEG-4 Visual
Профиль формата : Advanced Simple@L5
Параметр BVOP формата : Нет
Параметр QPel формата : Нет
Параметр GMC формата : Без точки перехода
Параметр матрицы формата : Default (H.263)
Идентификатор кодека : XVID
Идентификатор кодека/Подсказка : XviD
Продолжительность : 54 м.
Битрейт : 1403 Кбит/сек
Ширина : 720 пикселей
Высота : 400 пикселей
Соотношение сторон : 16:9
Частота кадров : 23,976 кадра/сек
Цветовое пространство : YUV
Субдискретизация насыщенности : 4:2:0
Битовая глубина : 8 бит
Тип развёртки : Прогрессивная
Метод сжатия : С потерями
Бит/(Пиксели*Кадры) : 0.203
Размер потока : 544 Мбайт (84%)
Библиотека кодирования : XviD 73
Аудио #1
Идентификатор : 1
Формат : MPEG Audio
Версия формата : Version 1
Профиль формата : Layer 3
Режим : Joint stereo
Расширение режима : MS Stereo
Идентификатор кодека : 55
Идентификатор кодека/Подсказка : MP3
Продолжительность : 54 м.
Вид битрейта : Постоянный
Битрейт : 128 Кбит/сек
Каналы : 2 канала
Частота : 48,0 КГц
Метод сжатия : С потерями
Размер потока : 49,6 Мбайт (8%)
Выравнивание : Соединение по промежуткам
Продолжительность промежутка : 42 мс. (1,00 видеокадр)
Время предзагрузки промежутка : 504 мс.
Заголовок : Russian (AlexFilm)
Библиотека кодирования : LAME3.99r
Настройки программы : -m j -V 4 -q 3 -lowpass 18 -b 128
Аудио #2
Идентификатор : 2
Формат : MPEG Audio
Версия формата : Version 1
Профиль формата : Layer 3
Режим : Joint stereo
Идентификатор кодека : 55
Идентификатор кодека/Подсказка : MP3
Продолжительность : 54 м.
Вид битрейта : Постоянный
Битрейт : 128 Кбит/сек
Каналы : 2 канала
Частота : 48,0 КГц
Метод сжатия : С потерями
Размер потока : 49,6 Мбайт (8%)
Выравнивание : Соединение по промежуткам
Продолжительность промежутка : 42 мс. (1,00 видеокадр)
Время предзагрузки промежутка : 504 мс.
Заголовок : English
Библиотека кодирования : LAME3.90.3

Внимание! Раздача ведётся путём добавления новых серий

Внимание! Раздача ведётся путём добавления новых серий; при каждом добавлении создаётся новый торрент. Чтобы начать докачку новой серии, пользователям необходимо сделать следующее:
(1) остановить скачивание,
(2) удалить старый торрент у себя из клиента (старые серии удалять не надо),
(3) скачать новый торрент и запустить его у себя в клиенте вместо старого, при этом указать клиенту путь в старую папку куда и должно происходить скачивание новых серий.
Ваш клиент при этом должен произвести хеширование (проверку) старой папки (если не производит сам - помогите ему сделать это), и будет докачивать только те серии которых у вас ещё нет. Старые серии при этом не удаляются, а продолжают раздаваться!
Eсли вы уже удалили старые серии, то предотвратить повторную закачку старых серий можно, отжав галочку в соответствующих местах при запуске нового торрента. По возможности, желательно не удалять старые серии как можно дольше чтобы релизёр не столько продолжал раздавать старые серии, а смог сконцентрироваться на новых.
--
Вне форума [Профиль] [ЛС]
Показать сообщения:    
Ответить на тему

Текущее время: Сегодня 23:26

Часовой пояс: GMT + 3



Вы не можете начинать темы
Вы не можете отвечать на сообщения
Вы не можете редактировать свои сообщения
Вы не можете удалять свои сообщения
Вы не можете голосовать в опросах
Вы не можете прикреплять файлы к сообщениям
Вы не можете скачивать файлы