Сегодня идет свободное скачивание без начисления Download

Неоспоримое / Undeniable / Сезон: 1 / Серии: 1-2 из 2 (Джон Стриклэнд) [2014 г., триллер, драма, HDTVRip] DVO (SNK-TV) + Original Eng + Sub Rus, Eng

Ответить на тему
 
Автор
Сообщение

Omen ®

Стаж: 5 лет 9 месяцев

Сообщений: 184433

Торрент-статистика

Пост 16-Фев-2016 18:03

[Цитировать]

Неоспоримое / Undeniable- Год выпуска: 2014
Страна: Великобритания
Жанр: Триллер, драма
Продолжительность: ~ 45 минут-Перевод: Любительский (двухголосый закадровый) - /SNK-TV/
Субтитры: Русские (Полные) - /SNK-TV/, Английские
Оригинальная аудиодорожка: английский-Режиссёр: Джон Стриклэнд
В ролях: Питер Фёрт, Клэр Гуз, Кристин Боттомли, Пиппа Хэйвуд, Роберт Пью, Феликс Скотт, Alisha Kelly, Ник Ли, Шаши Рэми, Роберт Томпсон-Описание: Маленькая Джейн стала свидетелем убийства своей мамы. 23 года спустя в больнице она замечает одного доктора, как ей кажется похожего на убийцу, и заявляет на него в полицию. Никто не верит ей, т.к. Джейн уже ошибалась раньше, никто не верит, кроме одного копа...-
Скачать сэмпл-Все раздачи-Качество: HDTVRip (Undeniable.S01E01.HDTV.XviD-AFG)
Формат: AVI
Видео кодек: Xvid
Аудио кодек: MP3
Видео: Xvid 640x360 25fps 1033kbps 25 fps
Аудио Rus: MP3 48000Hz stereo 128kbps
Аудио Eng: MP3 48000Hz stereo 128kbps-

Список серий

01. Episode 1
02. Episode 2

Скриншоты

-

MediaInfo

General
Complete name : W:\Торка на W\Undeniable\Undeniable\Undeniable.S01E01.HDTVRip.SNK-TV.avi
Format : AVI
Format/Info : Audio Video Interleave
File size : 422 MiB
Duration : 45mn 7s
Overall bit rate mode : Variable
Overall bit rate : 1 307 Kbps
Writing application : VirtualDubModRus 1.5.10.2 (build 2542/release)
Writing library : VirtualDubMod build 2542/release
Video
ID : 0
Format : MPEG-4 Visual
Format profile : Advanced Simple@L5
Format settings, BVOP : 2
Format settings, QPel : No
Format settings, GMC : No warppoints
Format settings, Matrix : Default (H.263)
Codec ID : XVID
Codec ID/Hint : XviD
Duration : 45mn 7s
Bit rate : 1 033 Kbps
Width : 640 pixels
Height : 360 pixels
Display aspect ratio : 16:9
Frame rate : 25.000 fps
Color space : YUV
Chroma subsampling : 4:2:0
Bit depth : 8 bits
Scan type : Progressive
Compression mode : Lossy
Bits/(Pixel*Frame) : 0.179
Stream size : 334 MiB (79%)
Writing library : XviD 64
Audio #1
ID : 1
Format : MPEG Audio
Format version : Version 1
Format profile : Layer 3
Mode : Joint stereo
Mode extension : MS Stereo
Codec ID : 55
Codec ID/Hint : MP3
Duration : 45mn 7s
Bit rate mode : Constant
Bit rate : 128 Kbps
Channel(s) : 2 channels
Sampling rate : 48.0 KHz
Compression mode : Lossy
Stream size : 41.3 MiB (10%)
Alignment : Aligned on interleaves
Interleave, duration : 40 ms (1.00 video frame)
Interleave, preload duration : 504 ms
Audio #2
ID : 2
Format : MPEG Audio
Format version : Version 1
Format profile : Layer 3
Mode : Joint stereo
Mode extension : MS Stereo
Codec ID : 55
Codec ID/Hint : MP3
Duration : 45mn 7s
Bit rate mode : Variable
Bit rate : 128 Kbps
Channel(s) : 2 channels
Sampling rate : 48.0 KHz
Compression mode : Lossy
Stream size : 41.3 MiB (10%)
Alignment : Aligned on interleaves
Interleave, duration : 24 ms (0.60 video frame)
Interleave, preload duration : 490 ms
-HDTVRip 720p
Вне форума [Профиль] [ЛС]
Показать сообщения:    
Ответить на тему

Текущее время: Сегодня 12:07

Часовой пояс: GMT + 3



Вы не можете начинать темы
Вы не можете отвечать на сообщения
Вы не можете редактировать свои сообщения
Вы не можете удалять свои сообщения
Вы не можете голосовать в опросах
Вы не можете прикреплять файлы к сообщениям
Вы не можете скачивать файлы