Сегодня идет свободное скачивание без начисления Download

Дитя любви / Love Child / Сезон: 1, 2 / Серии: 1-8 из 8 | 1-2 из 8 (Sarah Lambert) [2014-2015, мелодрама, драма, PDTV] Original + Rus Subs (Ron.Studio™)

Ответить на тему
 
Автор
Сообщение

Omen ®

Стаж: 5 лет 11 месяцев

Сообщений: 184329

Торрент-статистика

Пост 16-Фев-2016 18:00

[Цитировать]

Дитя любви / Love Child
Год выпуска: 2014-2015
Страна: Австралия
Жанр: мелодрама, драма
Продолжительность: 00:48:00
Перевод сезон 1: Субтитры Milo_slava (спасибо ей большое!)
Перевод сезон 2: Субтитры Ron.Studio™
Режиссёр: Sarah Lambert
В ролях: Jessica Marais, Jonathan LaPaglia, Mandy McElhinney, Ella Scott Lynch, Harriet Dyer, Gracie Gilbert, Sophie Hensser, Miranda Tapsell, Ben O'Toole, Ryan Corr, Maya Stange.
Описание: Дитя любви - телевизионный сериал о жизни сотрудников и пациентов вымышленного госпиталя Стэнтон-хауз в Сиднее в 1969. Сериал основан на реальных событиях по принудительному усыновлению, за которые впоследствии в 2013 году экс-премьер Джулия Гиллард принесла пострадавшим извинения.
Ссылка на предыдущие и альтернативные раздачи: раздается впервые
Сэмпл: http://multi-up.com/1089320
Качество: PDTV
Формат: MP4
Видео: AVC, 716х404 (16:9), 25 fps, 1200 kbps, 0.144 bit/pixel
Аудио: AAC, 48 kHz, 2 ch, 150 kbps
Субтитры: Внешние *.SRT

MediaInfo

General
Complete name : C:\Love.Child.AU.S01E01.PDTV.x264.mp4
Format : MPEG-4
Format profile : Base Media
Codec ID : isom
File size : 382 MiB
Duration : 45mn 45s
Overall bit rate mode : Variable
Overall bit rate : 1 167 Kbps
Encoded date : UTC 2014-02-17 20:55:57
Tagged date : UTC 2014-02-17 20:55:57
Video
ID : 1
Format : AVC
Format/Info : Advanced Video Codec
Format profile : High@L3.1
Format settings, CABAC : Yes
Format settings, ReFrames : 5 frames
Codec ID : avc1
Codec ID/Info : Advanced Video Coding
Duration : 45mn 45s
Bit rate : 1 041 Kbps
Maximum bit rate : 4 019 Kbps
Width : 716 pixels
Height : 404 pixels
Display aspect ratio : 16:9
Frame rate mode : Constant
Frame rate : 25.000 fps
Color space : YUV
Chroma subsampling : 4:2:0
Bit depth : 8 bits
Scan type : Progressive
Bits/(Pixel*Frame) : 0.144
Stream size : 341 MiB (89%)
Title : Video
Writing library : x264 core 140 r2377kMod 1ca7bb9
Encoding settings : cabac=1 / ref=5 / deblock=1:0:0 / analyse=0x3:0x113 / me=umh / subme=8 / psy=1 / fade_compensate=0.00 / psy_rd=1.00:0.00 / mixed_ref=1 / me_range=16 / chroma_me=1 / trellis=1 / 8x8dct=1 / cqm=0 / deadzone=21,11 / fast_pskip=1 / chroma_qp_offset=-2 / threads=12 / lookahead_threads=2 / sliced_threads=0 / nr=0 / decimate=1 / interlaced=0 / bluray_compat=0 / constrained_intra=0 / fgo=0 / bframes=3 / b_pyramid=2 / b_adapt=2 / b_bias=0 / direct=3 / weightb=1 / open_gop=0 / weightp=2 / keyint=250 / keyint_min=25 / scenecut=40 / intra_refresh=0 / rc_lookahead=50 / rc=crf / mbtree=1 / crf=19.0000 / qcomp=0.60 / qpmin=0 / qpmax=69 / qpstep=4 / ip_ratio=1.40 / aq=1:1.00
Encoded date : UTC 2014-02-17 20:55:57
Tagged date : UTC 2014-02-17 20:56:00
Audio
ID : 2
Format : AAC
Format/Info : Advanced Audio Codec
Format profile : LC
Codec ID : 40
Duration : 45mn 45s
Bit rate mode : Variable
Bit rate : 121 Kbps
Maximum bit rate : 176 Kbps
Channel(s) : 2 channels
Channel positions : Front: L R
Sampling rate : 48.0 KHz
Compression mode : Lossy
Stream size : 39.6 MiB (10%)
Title : English
Language : English
Encoded date : UTC 2014-02-17 20:55:59
Tagged date : UTC 2014-02-17 20:56:00

Скриншоты

Вне форума [Профиль] [ЛС]
Показать сообщения:    
Ответить на тему

Текущее время: Сегодня 01:08

Часовой пояс: GMT + 3



Вы не можете начинать темы
Вы не можете отвечать на сообщения
Вы не можете редактировать свои сообщения
Вы не можете удалять свои сообщения
Вы не можете голосовать в опросах
Вы не можете прикреплять файлы к сообщениям
Вы не можете скачивать файлы