Сегодня идет свободное скачивание без начисления Download

Ходячие мертвецы / The Walking Dead / Сезон: 6 / Серии: 1-9 из 16 (Эрнест Р. Дикерсон, Грег Никотеро, Гай Ферленд) [2015, Ужасы, триллер, драма, WEB-DL 720p] DVO (Gears Media) + Original

Ответить на тему
 
Автор
Сообщение

Omen ®

Стаж: 5 лет 11 месяцев

Сообщений: 184329

Торрент-статистика

Пост 16-Фев-2016 03:03

[Цитировать]

Ходячие мертвецы / The Walking Dead
Год выпуска: 2015
Страна: США
Жанр: Ужасы, триллер, драма
Продолжительность: ~43 мин.
Перевод: Профессиональный (двухголосый закадровый) Gears Media
Режиссёр: Эрнест Р. Дикерсон, Грег Никотеро, Гай Ферленд
В ролях: Эндрю Линкольн, Скотт Уилсон, Данай Джекесай Гурира, Дэвид Моррисси, Стивен Юн, Лорен Коэн, Чендлер Риггз, Норман Ридус, Мелисса Сюзанн МакБрайд, Эмили Кинни, Чад Коулмэн, Сонеква Мартин
Описание: Сериал рассказывает историю жизни семьи шерифа после того, как «зомби» — эпидемия апокалипсических масштабов захлестнула земной шар. Шериф Рик Грайм путешествует со своей семьей и небольшой группой выживших в поисках безопасного места для жизни. Но постоянный страх смерти каждый день приносит тяжелые потери, заставляя героев почувствовать глубины человеческой жестокости.
Сэмпл: http://multi-up.com/1071172
Качество: WEB-DL 720p
Формат: MKV
Видео: 1280×718 at 23.976 fps, MPEG-4 AVC, ~3873 kbps avg, 0.176 bit/pixel
Аудио1: Russian, AC3, 48 kHz, 2 ch, 384 kbps
Аудио2: English, AC3, 48 kHz, 6 ch, 384 kbps
Субтитры: нет

MediaInfo

Формат : Matroska
Версия формата : Version 4 / Version 2
Размер файла : 2,05 Гбайт
Продолжительность : 1 ч. 4 м.
Общий поток : 4539 Кбит/сек
Дата кодирования : UTC 2015-10-12 20:25:40
Программа кодирования : mkvmerge v8.2.0 ('World of Adventure') 64bit
Библиотека кодирования : libebml v1.3.1 + libmatroska v1.4.2
Attachements : small_cover.jpg / cover.jpg / cover_land.jpg / small_cover_land.jpg
DURATION : 01:04:44.096000000
NUMBER_OF_FRAMES : 121378
NUMBER_OF_BYTES : 93218304
_STATISTICS_WRITING_APP : mkvmerge v8.2.0 ('World of Adventure') 64bit
_STATISTICS_WRITING_DATE_UTC : 2015-10-12 20:25:40
_STATISTICS_TAGS : BPS DURATION NUMBER_OF_FRAMES NUMBER_OF_BYTES
Видео
Идентификатор : 1
Формат : AVC
Формат/Информация : Advanced Video Codec
Профиль формата : High@L3.1
Параметр CABAC формата : Нет
Параметр ReFrames формата : 2 кадра
Идентификатор кодека : V_MPEG4/ISO/AVC
Продолжительность : 1 ч. 4 м.
Битрейт : 3873 Кбит/сек
Ширина : 1280 пикселей
Высота : 718 пикселей
Соотношение сторон : 16:9
Режим частоты кадров : Постоянный
Частота кадров : 23,976 кадра/сек
Цветовое пространство : YUV
Субдискретизация насыщенности : 4:2:0
Битовая глубина : 8 бит
Тип развёртки : Прогрессивная
Бит/(Пиксели*Кадры) : 0.176
Размер потока : 1,75 Гбайт (85%)
Язык : English
Default : Да
Forced : Нет
colour_range : Limited
Основные цвета : BT.709
Характеристики трансфера : BT.709
Коэффициенты матрицы : BT.709
Аудио #1
Идентификатор : 2
Формат : AC-3
Формат/Информация : Audio Coding 3
Расширение режима : CM (complete main)
Параметр Endianness формата : Big
Идентификатор кодека : A_AC3
Продолжительность : 1 ч. 4 м.
Вид битрейта : Постоянный
Битрейт : 384 Кбит/сек
Каналы : 2 канала
Расположение каналов : Front: L R
Частота : 48,0 КГц
Метод сжатия : С потерями
Размер потока : 88,9 Мбайт (4%)
Язык : Russian
Default : Да
Forced : Да
Аудио #2
Идентификатор : 3
Формат : AC-3
Формат/Информация : Audio Coding 3
Расширение режима : CM (complete main)
Параметр Endianness формата : Big
Идентификатор кодека : A_AC3
Продолжительность : 1 ч. 4 м.
Вид битрейта : Постоянный
Битрейт : 384 Кбит/сек
Каналы : 6 каналов
Расположение каналов : Front: L C R, Side: L R, LFE
Частота : 48,0 КГц
Метод сжатия : С потерями
Размер потока : 178 Мбайт (8%)
Язык : English
Default : Нет
Forced : Нет

Скриншоты

Внимание! Раздача ведётся путём добавления новых серий

Внимание! Раздача ведётся путём добавления новых серий; при каждом добавлении создаётся новый торрент. Чтобы начать докачку новой серии, пользователям необходимо сделать следующее:
(1) остановить скачивание,
(2) удалить старый торрент у себя из клиента (старые серии удалять не надо),
(3) скачать новый торрент и запустить его у себя в клиенте вместо старого, при этом указать клиенту путь в старую папку куда и должно происходить скачивание новых серий.
Ваш клиент при этом должен произвести хеширование (проверку) старой папки (если не производит сам - помогите ему сделать это), и будет докачивать только те серии которых у вас ещё нет. Старые серии при этом не удаляются, а продолжают раздаваться!
Eсли вы уже удалили старые серии, то предотвратить повторную закачку старых серий можно, отжав галочку в соответствующих местах при запуске нового торрента. По возможности, желательно не удалять старые серии как можно дольше чтобы релизёр не столько продолжал раздавать старые серии, а смог сконцентрироваться на новых.
Вне форума [Профиль] [ЛС]
Показать сообщения:    
Ответить на тему

Текущее время: Сегодня 14:15

Часовой пояс: GMT + 3



Вы не можете начинать темы
Вы не можете отвечать на сообщения
Вы не можете редактировать свои сообщения
Вы не можете удалять свои сообщения
Вы не можете голосовать в опросах
Вы не можете прикреплять файлы к сообщениям
Вы не можете скачивать файлы