Сегодня идет свободное скачивание без начисления Download

Бруклин 9-9 / Brooklyn Nine-Nine / Сезон: 3 / Серии: 1-15 из 22 (Фил Лорд / Phil Lord) [2015, Комедия, WEB-DLRip] MVO (NewStudio)

Ответить на тему
 
Автор
Сообщение

Omen ®

Стаж: 5 лет 9 месяцев

Сообщений: 184393

Торрент-статистика

Пост 15-Фев-2016 18:00

[Цитировать]

Бруклин 9-9 / Brooklyn Nine-Nine / Сезон: 3
Год выпуска: 2015
Страна: США
Жанр: Комедия
Продолжительность: 22
Перевод: Профессиональный (многоголосый закадровый) NewStudio
Режиссёр: Фил Лорд / Phil Lord
В ролях: Энди Сэмберг, Андре Брогер, Терри Крюс, Мелисса Фумеро, Джо Ло Трульо, Стефани Беатриз
Описание: История о том, что происходит, когда у детектива, не воспринимающего ничего серьезно, появляется новый руководитель, который хочет, чтобы он рос и с уважением относился к своей должности.
Сэмпл: http://sendfile.su/1204338
Качество: WEB-DLRip
Формат: AVI
Видео: XviD, 720x400, 1 331 kb/s
Аудио: MP3, 128 kb/s
Субтитры: отсутствуют

MediaInfo

Формат : AVI
Формат/Информация : Audio Video Interleave
Размер файла : 250 Мбайт
Продолжительность : 21 м.
Общий поток : 1601 Кбит/сек
Программа кодирования : VirtualDubMod 1.5.10.2 (build 2540/release)
Библиотека кодирования : VirtualDubMod build 2540/release
Видео
Идентификатор : 0
Формат : MPEG-4 Visual
Профиль формата : Advanced Simple@L5
Параметр BVOP формата : 2
Параметр QPel формата : Нет
Параметр GMC формата : Без точки перехода
Параметр матрицы формата : Default (MPEG)
Идентификатор кодека : XVID
Идентификатор кодека/Подсказка : XviD
Продолжительность : 21 м.
Битрейт : 1331 Кбит/сек
Ширина : 720 пикселей
Высота : 400 пикселей
Соотношение сторон : 16:9
Частота кадров : 23,976 (23976/1000) кадра/сек
Цветовое пространство : YUV
Субдискретизация насыщенности : 4:2:0
Битовая глубина : 8 бит
Тип развёртки : Прогрессивная
Метод сжатия : С потерями
Бит/(Пиксели*Кадры) : 0.193
Размер потока : 208 Мбайт (83%)
Библиотека кодирования : XviD 73
Аудио #1
Идентификатор : 1
Формат : MPEG Audio
Версия формата : Version 1
Профиль формата : Layer 3
Режим : Joint stereo
Расширение режима : MS Stereo
Идентификатор кодека : 55
Идентификатор кодека/Подсказка : MP3
Продолжительность : 21 м.
Вид битрейта : Постоянный
Битрейт : 128 Кбит/сек
Каналы : 2 канала
Частота : 48,0 КГц
Метод сжатия : С потерями
Размер потока : 20,0 Мбайт (8%)
Выравнивание : Соединение по промежуткам
Продолжительность промежутка : 42 мс. (1,00 видеокадр)
Время предзагрузки промежутка : 504 мс.
Аудио #2
Идентификатор : 2
Формат : MPEG Audio
Версия формата : Version 1
Профиль формата : Layer 3
Режим : Joint stereo
Расширение режима : MS Stereo
Идентификатор кодека : 55
Идентификатор кодека/Подсказка : MP3
Продолжительность : 21 м.
Вид битрейта : Постоянный
Битрейт : 128 Кбит/сек
Каналы : 2 канала
Частота : 48,0 КГц
Метод сжатия : С потерями
Размер потока : 20,0 Мбайт (8%)
Выравнивание : Соединение по промежуткам
Продолжительность промежутка : 42 мс. (1,00 видеокадр)
Время предзагрузки промежутка : 504 мс.

Скриншоты



Вне форума [Профиль] [ЛС]
Показать сообщения:    
Ответить на тему

Текущее время: Сегодня 15:09

Часовой пояс: GMT + 3



Вы не можете начинать темы
Вы не можете отвечать на сообщения
Вы не можете редактировать свои сообщения
Вы не можете удалять свои сообщения
Вы не можете голосовать в опросах
Вы не можете прикреплять файлы к сообщениям
Вы не можете скачивать файлы