Сегодня идет свободное скачивание без начисления Download

Второй шанс / Second Chance / Сезон: 1 / Серии: 1-5 из 10 (Майкл Куэста, Сара Пиа Андерсон, Адам Кэйн) [2016, драма, фантастика, HDTVRip-AVC] Original + Rus Subs (N-Team) + Eng Subs

Ответить на тему
 
Автор
Сообщение

Omen ®

Стаж: 5 лет 9 месяцев

Сообщений: 184402

Торрент-статистика

Пост 14-Фев-2016 00:00

[Цитировать]

Второй шанс / Second Chance
Год выпуска: 2016
Страна: США
Жанр: драма, фантастика
Продолжительность: ~42 минуты
Перевод: Субтитры N-Team
Режиссёр: Майкл Куэста, Сара Пиа Андерсон, Адам Кэйн
В ролях: Роберт Казински, Адхир Кальян, Дилшад Вадсариа, Тим ДиКей, Сиэра Браво, Ванесса Ленгиз, Кармен Мур, Адан Канто, Дорон Белл
Описание: Когда 75-летнего шерифа убивают, он обретает шанс на новую жизнь. Учёные возвращают его в мир живых — он становится своеобразной версией Франкенштейна, получившей сверхсилу и вернувшей молодость. Теперь главному герою этой истории предстоит разобраться в том, по какой причине и кто именно его убил.
Ссылка на предыдущие и альтернативные раздачи: http:///*spam*//forum/tracker.php?f=189&nm=second+chance
Сэмпл: http://multi-up.com/1088116
Качество: HDTVRip-AVC
Формат: MP4
Видео: AVC, 720x404 (16:9), 23.976 fps, 946 kbps, 0.136 bit/pixel
Аудио: AAC, 48 KHz, 2 ch, 141 kbps [Eng]
Субтитры: софтсаб(SRT), русские, английские

Список серий

1. A Suitable Donor / Подходящий донор
2. One More Notch / Ещё одна зарубка
3. From Darkness, the Sun / Из тьмы — Солнце
4. Admissions / Признания
5. Scratch That Glitch / Исправить сбой

MediaInfo

General
Complete name : D:\Видео\Second Chance Season 1 [N-Team]\Second.Chance.S01E01.mp4
Format : MPEG-4
Format profile : Base Media
Codec ID : isom
File size : 353 MiB
Duration : 45mn 15s
Overall bit rate mode : Variable
Overall bit rate : 1 090 Kbps
Encoded date : UTC 2015-12-28 06:32:24
Tagged date : UTC 2015-12-28 06:32:24
Video
ID : 2
Format : AVC
Format/Info : Advanced Video Codec
Format profile : High@L3.1
Format settings, CABAC : Yes
Format settings, ReFrames : 5 frames
Codec ID : avc1
Codec ID/Info : Advanced Video Coding
Duration : 45mn 15s
Source duration : 45mn 15s
Bit rate : 946 Kbps
Maximum bit rate : 8 797 Kbps
Width : 720 pixels
Height : 404 pixels
Display aspect ratio : 16:9
Frame rate mode : Constant
Frame rate : 23.976 fps
Color space : YUV
Chroma subsampling : 4:2:0
Bit depth : 8 bits
Scan type : Progressive
Bits/(Pixel*Frame) : 0.136
Stream size : 306 MiB (87%)
Source stream size : 306 MiB (87%)
Writing library : x264 core 148 r2638 7599210
Encoding settings : cabac=1 / ref=5 / deblock=1:0:0 / analyse=0x3:0x113 / me=umh / subme=8 / psy=1 / psy_rd=1.00:0.00 / mixed_ref=1 / me_range=16 / chroma_me=1 / trellis=1 / 8x8dct=1 / cqm=0 / deadzone=21,11 / fast_pskip=1 / chroma_qp_offset=-2 / threads=13 / lookahead_threads=2 / sliced_threads=0 / nr=0 / decimate=1 / interlaced=0 / bluray_compat=0 / constrained_intra=0 / bframes=3 / b_pyramid=2 / b_adapt=2 / b_bias=0 / direct=3 / weightb=1 / open_gop=0 / weightp=2 / keyint=250 / keyint_min=23 / scenecut=40 / intra_refresh=0 / rc_lookahead=50 / rc=crf / mbtree=1 / crf=19.0 / qcomp=0.60 / qpmin=0 / qpmax=69 / qpstep=4 / ip_ratio=1.40 / aq=1:1.00
Encoded date : UTC 2015-12-28 06:06:36
Tagged date : UTC 2015-12-28 06:32:26
Matrix coefficients : BT.709
Color range : Limited
Audio
ID : 1
Format : AAC
Format/Info : Advanced Audio Codec
Format profile : LC
Codec ID : 40
Duration : 45mn 15s
Bit rate mode : Variable
Bit rate : 141 Kbps
Maximum bit rate : 172 Kbps
Channel(s) : 2 channels
Channel positions : Front: L R
Sampling rate : 48.0 KHz
Compression mode : Lossy
Stream size : 45.5 MiB (13%)
Encoded date : UTC 2015-12-28 06:32:24
Tagged date : UTC 2015-12-28 06:32:26

Скриншоты

Внимание! Раздача ведётся путём добавления новых серий

Внимание! Раздача ведётся путём добавления новых серий; при каждом добавлении создётся новый торрент. Чтобы начать докачку новой серии, пользователям необходимо сделать следующее:
-Остановить скачивание.
-Удалить старый торрент у себя из клиента (старые серии удалять не надо).
-Скачать новый торрент и запустить его у себя в клиенте вместо старого, при этом указать клиенту путь в старую папку куда и должно происходить скачивание новых серий.
Ваш клиент при этом должен произвести хеширование (проверку) старой папки (если не производит сам - помогите ему сделать это), и будет докачивать только те серии которых у вас ещё нет. Старые серии при этом не удаляются, а продолжают раздаваться!
Если вы уже удалили старые серии, то предотвратить повторную закачку старых серий можно, отжав галочку в соответствующих местах при запуске нового торрента. По возможности, желательно не удалять старые серии как можно дольше чтобы релизёр не столько продолжал раздавать старые серии, а смог сконцентрироваться на новых.
Внимание: Добавлена 5 серия
Вне форума [Профиль] [ЛС]
Показать сообщения:    
Ответить на тему

Текущее время: Сегодня 20:26

Часовой пояс: GMT + 3



Вы не можете начинать темы
Вы не можете отвечать на сообщения
Вы не можете редактировать свои сообщения
Вы не можете удалять свои сообщения
Вы не можете голосовать в опросах
Вы не можете прикреплять файлы к сообщениям
Вы не можете скачивать файлы