Сегодня идет свободное скачивание без начисления Download

Флэш / The Flash / Сезон: 2 / Серии: 1-13 из 23 (Дэвид Наттер) [2015, фантастика, фэнтези, боевик, драма, приключения, WEB-DL 720p] 4хMVO (LostFilm, Jaskier, BaibaKo, NewStudio) + Original + Subs (Rus, Eng)

Ответить на тему
 
Автор
Сообщение

Omen ®

Стаж: 5 лет 7 месяцев

Сообщений: 185427

Торрент-статистика

Пост 14-Фев-2016 00:00

[Цитировать]

-Флэш / The Flash
- -Год выпуска: 2015.
Страна: США.
Жанр: фантастика, фэнтези, боевик, драма, приключения.
Продолжительность: ~00:45:00.-Перевод: | Профессиональный (многоголосый закадровый) LostFilm |
Перевод: | Профессиональный (многоголосый закадровый) Jaskier |
Перевод: | Профессиональный (многоголосый закадровый) BaibaKo|
Перевод: | Профессиональный (многоголосый закадровый) NewStudio |-Режиссёр: Дэвид Наттер.-В ролях:
Грант Гастин, Кэндис Паттон, Рик Коснетт, Даниэль Панабэйкер, Карлос Валдес, Томас Кэвэна, Джесси Л. Мартин, Патрик Сабонгуй, Грег Финли, Вентворт Миллер.-Описание:
Из-за несчастного случая судмедэксперт Барри Аллен приобретает способность передвигаться с невероятной скоростью. Этот случай делает его супергероем, которым он всегда мечтал стать...
После финала первого сезона, Барри ждёт новое самое серьёзное испытание, из всех что ему выпадали. Глобальный катаклизм из-за ошибки нашего героя, грозит уничтожить весь Северо-Американский континент. Что же предпримет герой?-Доп. Информация:
Релиз от
by Plazik.
Работа со звуком: Plazik.
  • Звуковые дорожки 1 и 4 были получены путем наложения выделенных голосов на центр оригинала.
  • Звуковая дорожка 2 и 3 была получена путем наложения чистых голосов на центр оригинала.-Качество: WEB-DL 720p
    Контейнер: MKV-Видео: 1280x718 at 23.976 fps, MPEG-4 AVC, ~4000 kbps avg
    Аудио#1: Russian: 48 kHz, AC3, 3/2 (L,C,R,l,r) + LFE ch, ~384.00 kbps avg |Многоголосый закадровый, LostFilm|
    Аудио#2: Russian: 48 kHz, AC3, 3/2 (L,C,R,l,r) + LFE ch, ~384.00 kbps avg |Многоголосый закадровый, Jaskier|
    Аудио#3: Russian: 48 kHz, AC3, 3/2 (L,C,R,l,r) + LFE ch, ~384.00 kbps avg |Многоголосый закадровый, BaibaKo|
    Аудио#4: Russian: 48 kHz, AC3, 3/2 (L,C,R,l,r) + LFE ch, ~384.00 kbps avg |Многоголосый закадровый, Newstudio|
    Аудио#5:: English: 48 kHz, AC3, 3/2 (L,C,R,l,r) + LFE ch, ~384.00 kbps avg
    Субтитры: Russian (Coffee Translate), English, English SDH (SRT).-

Знаете ли вы, что...

  • Актёр Марк Хэмилл, играющий роль Джеймса Джесси (Трикстер), играл эту же роль в сериале «Флэш» (1990).
  • В 10 серии 1 сезона, когда Айрис отдает Барри его старый портфель, он достает из него комикс «Космический Призрак».
  • Актер Джон Уэсли Шипп, играющий в сериале отца Барри Аллена — Генри Аллена, играл самого Флэша в сериале «Флэш» (1990-1991).
  • Актриса Аманда Пэйс снова играет роль Тины МакГи, как и в сериале «Флэш» (1990), но на этот раз она работает на конкурирующую фирму Star Labs.
  • Актёр Вито Д`Амброзио играет роль мэра Цэнтрал Сити — Энтони Беллоуза. В сериале «Флэш» (1990) он играл роль офицера полиции Тони Беллоуза.

Список серий

  • 01. The Man Who Saved Central City/Человек, что спас Централ-сити.
  • 02. Flash of Two Worlds/Флэш двух миров.
  • 03. Family of Rogues/Семейка негодяев.
  • 04. The Fury of Firestorm/Буйство Огнешторма.
  • 05. The Darkness and the Light/Тьма и Свет.
  • 06. Enter Zoom/Выход Зума.
  • 07. Gorilla Warfare/Столкновение с Гориллой.
  • 08. Legends of Today part 1/Легенды сегодняшнего дня часть 1.
  • 09. Running to Stand Still/Бег на месте.
  • 10. Potential energy/Потенциальная энергия.
  • 11. The Reverse-Flash Returns/Возвращение Реверс-Флэша.
  • 12. Fast Lane/Скоростной режим.
  • 13. Welkome to Earth-2/Добро пожаловать на Землю-2.

MediaInfo

GeneralUnique ID : 234119908497747623704468603477558284616 (0xB021DAAF2A29AB2BAA3AA3BA99BFD148)Complete name : Q:\!СЕРИАЛЫ!\!ФЛЭШ!\The Flash S02 (2015) 720p WEB-DL 4xRus Eng Subs-HDCLUB\The Flash S02E01 The Man Who Saved Central City 720p WEB-DL 4xRus Eng Subs-HDCLUB.mkvFormat : MatroskaFormat version : Version 4 / Version 2File size : 1.76 GiBDuration : 42mn 26sOverall bit rate : 5 952 KbpsMovie name : Флэш / The Flash (2015) S02E01 Тот, кто спас Централ-сити / The Man Who Saved Central CityEncoded date : UTC 2015-10-25 07:02:54Writing application : mkvmerge v8.5.1 ('Where you lead I will follow') 64bitWriting library : libebml v1.3.3 + libmatroska v1.4.4Attachements : cover.jpg
VideoID : 1Format : AVCFormat/Info : Advanced Video CodecFormat profile : High@L3.1Format settings, CABAC : NoFormat settings, ReFrames : 2 framesCodec ID : V_MPEG4/ISO/AVCDuration : 42mn 26sBit rate : 3 914 KbpsWidth : 1 280 pixelsHeight : 718 pixelsDisplay aspect ratio : 16:9Frame rate mode : ConstantFrame rate : 23.976 fpsColor space : YUVChroma subsampling : 4:2:0Bit depth : 8 bitsScan type : ProgressiveBits/(Pixel*Frame) : 0.178Stream size : 1.16 GiB (66%)Title : MPEG-4 AVC @ ~4000 Kbps - iTunesLanguage : EnglishDefault : YesForced : NoColor range : LimitedColor primaries : BT.709Transfer characteristics : BT.709Matrix coefficients : BT.709
Audio #1ID : 2Format : AC-3Format/Info : Audio Coding 3Mode extension : CM (complete main)Format settings, Endianness : BigCodec ID : A_AC3Duration : 42mn 26sBit rate mode : ConstantBit rate : 384 KbpsChannel(s) : 6 channelsChannel positions : Front: L C R, Side: L R, LFESampling rate : 48.0 KHzCompression mode : LossyStream size : 117 MiB (6%)Title : AC3 5.1 @ 384 Kbps - Многоголосый закадровый, LostFilmLanguage : RussianDefault : YesForced : No
Audio #2ID : 3Format : AC-3Format/Info : Audio Coding 3Mode extension : CM (complete main)Format settings, Endianness : BigCodec ID : A_AC3Duration : 42mn 26sBit rate mode : ConstantBit rate : 384 KbpsChannel(s) : 6 channelsChannel positions : Front: L C R, Side: L R, LFESampling rate : 48.0 KHzCompression mode : LossyStream size : 117 MiB (6%)Title : AC3 5.1 @ 384 Kbps - Многоголосый закадровый, JaskierLanguage : EnglishDefault : NoForced : No
Audio #3ID : 4Format : AC-3Format/Info : Audio Coding 3Mode extension : CM (complete main)Format settings, Endianness : BigCodec ID : A_AC3Duration : 42mn 26sBit rate mode : ConstantBit rate : 384 KbpsChannel(s) : 6 channelsChannel positions : Front: L C R, Side: L R, LFESampling rate : 48.0 KHzCompression mode : LossyStream size : 117 MiB (6%)Title : AC3 5.1 @ 384 Kbps - Многоголосый закадровый, BaibaKoLanguage : RussianDefault : NoForced : No
Audio #4ID : 5Format : AC-3Format/Info : Audio Coding 3Mode extension : CM (complete main)Format settings, Endianness : BigCodec ID : A_AC3Duration : 42mn 26sBit rate mode : ConstantBit rate : 384 KbpsChannel(s) : 6 channelsChannel positions : Front: L C R, Side: L R, LFESampling rate : 48.0 KHzCompression mode : LossyStream size : 117 MiB (6%)Title : AC3 5.1 @ 384 Kbps - Многоголосый закадровый, NewstudioLanguage : EnglishDefault : NoForced : No
Audio #5ID : 6Format : AC-3Format/Info : Audio Coding 3Mode extension : CM (complete main)Format settings, Endianness : BigCodec ID : A_AC3Duration : 42mn 26sBit rate mode : ConstantBit rate : 384 KbpsChannel(s) : 6 channelsChannel positions : Front: L C R, Side: L R, LFESampling rate : 48.0 KHzCompression mode : LossyStream size : 117 MiB (6%)Title : AC3 5.1 @ 384 KbpsLanguage : EnglishDefault : NoForced : No
Text #1ID : 7Format : UTF-8Codec ID : S_TEXT/UTF8Codec ID/Info : UTF-8 Plain TextTitle : SRT - Full - Coffee TranslateLanguage : RussianDefault : NoForced : No
Text #2ID : 8Format : UTF-8Codec ID : S_TEXT/UTF8Codec ID/Info : UTF-8 Plain TextTitle : SRT - FullLanguage : EnglishDefault : NoForced : No
Text #3ID : 9Format : UTF-8Codec ID : S_TEXT/UTF8Codec ID/Info : UTF-8 Plain TextTitle : SRT - Full SDHLanguage : EnglishDefault : NoForced : No

Скриншоты


Внимание! Раздача ведётся путём добавления новых серий

Внимание! Раздача ведётся путём добавления новых серий; при каждом добавлении создаётся новый торрент. Чтобы начать докачку новой серии, пользователям необходимо сделать следующее:
(1) остановить скачивание,
(2) удалить старый торрент у себя из клиента (старые серии удалять не надо),
(3) скачать новый торрент и запустить его у себя в клиенте вместо старого, при этом указать клиенту путь в старую папку куда и должно происходить скачивание новых серий.
Ваш клиент при этом должен произвести хеширование (проверку) старой папки (если не производит сам - помогите ему сделать это), и будет докачивать только те серии которых у вас ещё нет. Старые серии при этом не удаляются, а продолжают раздаваться!
Eсли вы уже удалили старые серии, то предотвратить повторную закачку старых серий можно, отжав галочку в соответствующих местах при запуске нового торрента. По возможности, желательно не удалять старые серии как можно дольше чтобы релизёр не столько продолжал раздавать старые серии, а смог сконцентрироваться на новых.
Сэмпл | КиноПоиск | IMDB | MyShows | Все раздачи
Вне форума [Профиль] [ЛС]
Показать сообщения:    
Ответить на тему

Текущее время: Сегодня 16:23

Часовой пояс: GMT + 3



Вы не можете начинать темы
Вы не можете отвечать на сообщения
Вы не можете редактировать свои сообщения
Вы не можете удалять свои сообщения
Вы не можете голосовать в опросах
Вы не можете прикреплять файлы к сообщениям
Вы не можете скачивать файлы