Сегодня идет свободное скачивание без начисления Download

Чирс / Cheers / Сезон: 4 / Серии: 8-11 из 26 (Джеймс Берроуз, Глен Чарльз, Лес Чарльз) [1985, Комедия, драма, ситком, WEB-DLRip] DVO (ViruseProject)

Ответить на тему
 
Автор
Сообщение

Omen ®

Стаж: 5 лет 11 месяцев

Сообщений: 184329

Торрент-статистика

Пост 13-Фев-2016 18:00

[Цитировать]

Чирс / Cheers Год выпуска: 1985
Страна: США
Жанр: Комедия, драма, ситком
Продолжительность: ~25 мин
Перевод: Профессиональный (двухголосый закадровый) ViruseProject
Режиссёр: Джеймс Берроуз, Глен Чарльз, Лес Чарльз
В ролях: Тед Дэнсон, Ри Перлман, Джон Ратценбергер, Джордж Уэндт, Келси Грэммер, Вуди Харрельсон, Кёрсти Элли, Шелли Лонг, Биби Ньювирт, Аль Розен и др.
Описание: Культовый сериал 80-ых. Американский ситком, состоящий из 11-ти сезонов. "Cheers" - это название небольшого бара в Бостоне, которым владеет Сэм "Мэйдэй" Мэлоун, бывшая звезда бейсбола. В баре работают люди, совершенно разные как по уровню образования, так и стоящие на разных ступенях социальной лестницы. Здесь есть официантки - образованная Дайан и многодетная мать Карла, а также Тренер - туповатый добродушный старикан, близкий друг и помощник Сэма. Разумеется, такая разношерстная компания не может спокойно уживаться вместе. Сэм, персонал и завсегдатаи бара каждый день спорят, ссорятся, болтают о проблемах, смеются друг над другом, обсуждают забавные случаи из жизни. Все это, разумеется, сдобрено солидной порцией алкоголя. На шутках, юморе и подколках строится весь сериал. Норман (Норм) Питерсон и Клифф Клэйвин - закадычные друзья, завсегдатаи бара и страстные любители пива - стали в Америке иконическими народными персонажами, знакомыми практически каждому. (с) megabith555
Ссылка на предыдущие и альтернативные раздачи: http:///*spam*//forum/tracker.php?nm=cheers%20...0%B8%D1%80%D1%81
Качество: WEB-DLRip
Формат: AVI
Видео: 720x536 (1.34:1), 23.975 fps, XviD build 50 ~1488 kbps avg, 0.16 bit/pixel
Аудио: 48 kHz, MPEG Layer 3, 2 ch, ~192.00 kbps avg
Субтитры: отсутствуют

Внимание! Раздача ведётся путём добавления новых серий

Внимание! Раздача ведётся путём добавления новых серий; при каждом добавлении создаётся новый торрент. Чтобы начать докачку новой серии, пользователям необходимо сделать следующее:
(1) остановить скачивание,
(2) удалить старый торрент у себя из клиента (старые серии удалять не надо),
(3) скачать новый торрент и запустить его у себя в клиенте вместо старого, при этом указать клиенту путь в старую папку куда и должно происходить скачивание новых серий.
Ваш клиент при этом должен произвести хеширование (проверку) старой папки (если не производит сам - помогите ему сделать это), и будет докачивать только те серии которых у вас ещё нет. Старые серии при этом не удаляются, а продолжают раздаваться!
Eсли вы уже удалили старые серии, то предотвратить повторную закачку старых серий можно, отжав галочку в соответствующих местах при запуске нового торрента. По возможности, желательно не удалять старые серии как можно дольше чтобы релизёр не столько продолжал раздавать старые серии, а смог сконцентрироваться на новых.

MediaInfo

F:\ФИЛЬМЫ & СЕРИАЛЫ\Cheers.S04.ViruseProject\8.avi
General
Complete name : F:\ФИЛЬМЫ & СЕРИАЛЫ\Cheers.S04.ViruseProject\8.avi
Format : AVI
Format/Info : Audio Video Interleave
File size : 301 MiB
Duration : 24mn 53s
Overall bit rate : 1 688 Kbps
Writing application : VirtualDubMod 1.5.10.2 (build 2540/release)
Writing library : VirtualDubMod build 2540/release
Video #0
ID : 0
Format : MPEG-4 Visual
Format profile : Advanced Simple@L5
Format settings, BVOP : Yes
Format settings, QPel : No
Format settings, GMC : No warppoints
Format settings, Matrix : Default (MPEG)
Codec ID : XVID
Codec ID/Hint : XviD
Duration : 24mn 53s
Bit rate : 1 486 Kbps
Width : 720 pixels
Height : 528 pixels
Display aspect ratio : 4:3
Frame rate : 23.976 fps
Color space : YUV
Chroma subsampling : 4:2:0
Bit depth : 8 bits
Scan type : Progressive
Compression mode : Lossy
Bits/(Pixel*Frame) : 0.163
Stream size : 265 MiB (88%)
Writing library : XviD 1.2.1 (UTC 2008-12-04)
Audio #1
ID : 1
Format : MPEG Audio
Format version : Version 1
Format profile : Layer 3
Mode : Joint stereo
Mode extension : MS Stereo
Codec ID : 55
Codec ID/Hint : MP3
Duration : 24mn 53s
Bit rate mode : Constant
Bit rate : 192 Kbps
Channel(s) : 2 channels
Sampling rate : 48.0 KHz
Compression mode : Lossy
Stream size : 34.2 MiB (11%)
Alignment : Split accross interleaves
Interleave, duration : 42 ms (1.00 video frame)
Interleave, preload duration : 500 ms

Скриншоты

Вне форума [Профиль] [ЛС]
Показать сообщения:    
Ответить на тему

Текущее время: Сегодня 11:11

Часовой пояс: GMT + 3



Вы не можете начинать темы
Вы не можете отвечать на сообщения
Вы не можете редактировать свои сообщения
Вы не можете удалять свои сообщения
Вы не можете голосовать в опросах
Вы не можете прикреплять файлы к сообщениям
Вы не можете скачивать файлы