Сегодня идет свободное скачивание без начисления Download

Области тьмы / Limitless / Сезон: 1 / Серии: 1-14 из 22 (Нил Бёргер, Марк Уэбб) [2015, Фантастика, триллер, драма, WEB-DL 720p] MVO (BaibaKo) + Original

Ответить на тему
 
Автор
Сообщение

Omen ®

Стаж: 5 лет 6 месяцев

Сообщений: 186946

Торрент-статистика

Пост 12-Фев-2016 21:00

[Цитировать]

-Области тьмы | Limitless- Год выпуска: 2015
Страна: США
Жанр: Фантастика, триллер, драма
Продолжительность: ~ 00:44:00-Перевод: Профессиональный (многоголосый закадровый) | BaibaKo-Режиссёр: Нил Бёргер, Марк Уэбб-В ролях: Джейк Макдорман, Брэдли Купер, Дженнифер Карпентер, Хилл Харпер, Мэри Элизабет Мастрантонио, Генри Джальярди, Майкл Джеймс Шоу, Тревор Брукс, Джина Диас-Описание: Действие сериала начнется там же, где завершился фильм "Области тьмы", но расскажет о Брайане Синклере, который открыл для себя тот самый загадочный наркотик. Полученные благодаря нему способности главный герой использует во благо, помогая ФБР.- --Качество: WEB-DL 720р
Формат: MKV
Видео: x264, ~ 4000 kbps, 1280х720 (16:9), 23,976 fps
Аудио 1: AC3, 48,0 КГц, 6 ch, 384 kbps - Rus
Аудио 2: AC3, 48,0 КГц, 6 ch, 384 kbps - Eng
Субтитры: отсутствуют
Видео без рекламных роликов.-

Релиз

Перевод: Профессиональный (многоголосый, закадровый)
Релиз-группа: BaibaKo

MediaInfo

Код:
Общее
Уникальный идентификатор                 : 187232418529451570204882708512072647712 (0x8CDBA6F2AF9099548BEEB32CA53DC420)
Полное имя                               : F:\кино\Limitless (s01) HD720p.BaibaKo\Limitless.s01e01.HD720p.WEB-DL.Rus.Eng.BaibaKo.mkv
Формат                                   : Matroska
Версия формата                           : Version 4 / Version 2
Размер файла                             : 1,48 Гбайт
Продолжительность                        : 43 м.
Общий поток                              : 4829 Кбит/сек
Дата кодирования                         : UTC 2015-09-24 12:54:17
Программа кодирования                    : mkvmerge v7.3.0 ('Nouages') 32bit built on Oct 22 2014 18:44:01
Библиотека кодирования                   : libebml v1.3.0 + libmatroska v1.4.1
_STATISTICS_WRITING_APP                  : mkvmerge v7.3.0 ('Nouages') 32bit built on Oct 22 2014 18:44:01
_STATISTICS_WRITING_DATE_UTC             : 2015-09-24 12:54:17
_STATISTICS_TAGS                         : BPS DURATION NUMBER_OF_FRAMES NUMBER_OF_BYTES
DURATION                                 : 00:43:53.151000000
NUMBER_OF_FRAMES                         : 82286
NUMBER_OF_BYTES                          : 126391296
Видео
Идентификатор                            : 1
Формат                                   : AVC
Формат/Информация                        : Advanced Video Codec
Профиль формата                          : High@L3.1
Параметр CABAC формата                   : Нет
Параметр ReFrames формата                : 2 кадра
Идентификатор кодека                     : V_MPEG4/ISO/AVC
Продолжительность                        : 43 м.
Битрейт                                  : 3965 Кбит/сек
Ширина                                   : 1280 пикселей
Высота                                   : 720 пикселей
Соотношение сторон                       : 16:9
Режим частоты кадров                     : Постоянный
Частота кадров                           : 24,000 кадра/сек
Цветовое пространство                    : YUV
Субдискретизация насыщенности            : 4:2:0
Битовая глубина                          : 8 бит
Тип развёртки                            : Прогрессивная
Бит/(Пиксели*Кадры)                      : 0.179
Размер потока                            : 1,22 Гбайт (82%)
Default                                  : Нет
Forced                                   : Нет
Основные цвета                           : BT.709
Характеристики трансфера                 : BT.709
Коэффициенты матрицы                     : BT.709
Аудио #1
Идентификатор                            : 2
Формат                                   : AC-3
Формат/Информация                        : Audio Coding 3
Расширение режима                        : CM (complete main)
Параметр Endianness формата              : Big
Идентификатор кодека                     : A_AC3
Продолжительность                        : 43 м.
Вид битрейта                             : Постоянный
Битрейт                                  : 384 Кбит/сек
Каналы                                   : 6 каналов
Расположение каналов                     : Front: L C R, Side: L R, LFE
Частота                                  : 48,0 КГц
Битовая глубина                          : 16 бит
Метод сжатия                             : С потерями
Задержка видео                           : 24 мс.
Размер потока                            : 121 Мбайт (8%)
Язык                                     : Russian
Default                                  : Да
Forced                                   : Нет
Аудио #2
Идентификатор                            : 3
Формат                                   : AC-3
Формат/Информация                        : Audio Coding 3
Расширение режима                        : CM (complete main)
Параметр Endianness формата              : Big
Идентификатор кодека                     : A_AC3
Продолжительность                        : 43 м.
Вид битрейта                             : Постоянный
Битрейт                                  : 384 Кбит/сек
Каналы                                   : 6 каналов
Расположение каналов                     : Front: L C R, Side: L R, LFE
Частота                                  : 48,0 КГц
Битовая глубина                          : 16 бит
Метод сжатия                             : С потерями
Задержка видео                           : 22 мс.
Размер потока                            : 121 Мбайт (8%)
Язык                                     : English
Default                                  : Нет
Forced                                   : Нет

Скриншоты

Раздача ведется путем добавления новых серий

Когда раздача ведётся путём добавления новых серий, при каждом добавлении создётся новый торрент. Чтобы начать докачку новой серии, пользователям необходимо сделать следующее:
(1) остановить скачивание,
(2) удалить старый торрент у себя из клиента (старые серии удалять не надо),
(3) скачать новый торрент и запустить его у себя в клиенте вместо старого, при этом указать клиенту путь в старую папку, куда и должно происходить скачивание новых серий.
Ваш клиент при этом должен произвести хеширование (проверку) старой папки (если не производит сам - помогите ему сделать это), и будет докачивать только те серии, которых у вас ещё нет. Старые серии при этом не удаляются, а продолжают раздаваться!
Eсли вы уже удалили старые серии, то предотвратить повторную закачку старых серий можно, отжав галочку в соответсвующих местах при запуске нового торрента. По возможности, желательно не удалять старые серии как можно дольше, чтобы релизёр не столько продолжал раздавать старые серии, а смог сконцентрироваться на новых.
Вне форума [Профиль] [ЛС]
Похожие темы
Форум Тема Автор Торрент Отв. Посл. сообщение
./templates/default/images/folder_dl.gif Обучающее видео [PentestIT] Zero Security: A - стажировка в области ИБ для начинающих [2015, RUS] Omen
1 | 0

0 | 1150

29

2015-05-19 15:45
Omen Последнее
./templates/default/images/folder_dl.gif Справочные системы ЕГТС - Лето 2012, Версия 83.0 Professional (г. Москва и Московская область) [Rus] XP1971
1 | 0

0 | 9003

22

2017-04-02 14:21
XP1971 Последнее
Показать сообщения:    
Ответить на тему

Текущее время: Сегодня 21:23

Часовой пояс: GMT + 3



Вы не можете начинать темы
Вы не можете отвечать на сообщения
Вы не можете редактировать свои сообщения
Вы не можете удалять свои сообщения
Вы не можете голосовать в опросах
Вы не можете прикреплять файлы к сообщениям
Вы не можете скачивать файлы