Сегодня идет свободное скачивание без начисления Download

Области тьмы / Limitless / Сезон: 1 / Серии: 1-14 из 22 (Марк Уэбб, Дуглас Арниокоски, Гильермо Наварро) [2015, фантастика, триллер, драма, WEB-DL 1080p] MVO (NewStudio) + Original

Ответить на тему
 
Автор
Сообщение

Omen ®

Стаж: 6 лет 1 месяц

Сообщений: 184308

Торрент-статистика

Пост 12-Фев-2016 00:00

[Цитировать]

Области тьмыLimitless-Год выпуска: 2015
Страна: США
Жанр: фантастика, триллер, драма
Продолжительность: 00:44:00-Перевод: Профессиональный (многоголосый, закадровый) (NewStudio)
Режиссер: Марк Уэбб / Marc Webb, Дуглас Арниокоски / Douglas Aarniokoski, Гильермо Наварро / Guillermo Navarro
В ролях:
Джейк Макдорман (Brian Sinclair), Брэдли Купер (Eddie Morra), Дженнифер Карпентер (Rebecca), Aaron Ayhan (FBI Agent), Хилл Харпер (Boyle), Мэри Элизабет Мастрантонио (Nasreen Awad), Генри Джальярди (Young Brian), Майкл Джеймс Шоу (Mike), Тревор Брукс (Boy Playing Chess with Dad), Джина Диас (Intrepid Audience Members), Тим Фэлтер (Dad Playing Chess), Орелин Гайя (FBI Agent)-Описание: Сериал снят по мотивам одноименного полнометражного фильма и рассказывает историю человека, который с помощью особого препарата может полностью использовать возможности своего мозга.- --Релиз:
Перевод: Юля Мейер--Качество: WEB-DL 1080p
Контейнер: MKV
Видео: H.264, 1920x1080 [16:9], 23.976 fps, 4 829 kbps, 0.097 bit/pixel
Аудио №1: AC3, 48 kHz, 6 ch, 384 kbps [NewStudio]
Аудио №2: AC3, 48 kHz, 6 ch, 384 kbps [Original]
Субтитры: отсутствуют-

Скриншоты

MediaInfo

General
Unique ID : 255129124754511949400422695806826666900 (0xBFF01504D55B02BEA1E6AEF948535B94)
Complete name : F:\Limitless.s01.WEBDL.1080p.NewStudio\Limitless.s01e01.WEBDL.1080p.NewStudio.TV.mkv
Format : Matroska
Format version : Version 4 / Version 2
File size : 1.75 GiB
Duration : 43mn 56s
Overall bit rate : 5 711 Kbps
Encoded date : UTC 2015-09-23 10:01:20
Writing application : mkvmerge v8.2.0 ('World of Adventure') 32bit
Writing library : libebml v1.3.1 + libmatroska v1.4.2
DURATION : 00:43:56.928000000
NUMBER_OF_FRAMES : 82404
NUMBER_OF_BYTES : 126572544
_STATISTICS_WRITING_APP : mkvmerge v8.2.0 ('World of Adventure') 32bit
_STATISTICS_WRITING_DATE_UT : 2015-09-23 10:01:20
_STATISTICS_TAGS : BPS DURATION NUMBER_OF_FRAMES NUMBER_OF_BYTES
Video
ID : 1
Format : AVC
Format/Info : Advanced Video Codec
Format profile : High@L4.0
Format settings, CABAC : Yes
Format settings, ReFrames : 4 frames
Format settings, GOP : N=1
Codec ID : V_MPEG4/ISO/AVC
Duration : 43mn 56s
Bit rate : 4 829 Kbps
Width : 1 920 pixels
Height : 1 080 pixels
Display aspect ratio : 16:9
Frame rate mode : Constant
Frame rate : 23.976 fps
Color space : YUV
Chroma subsampling : 4:2:0
Bit depth : 8 bits
Scan type : Progressive
Bits/(Pixel*Frame) : 0.097
Stream size : 1.48 GiB (85%)
Language : English
Default : Yes
Forced : No
Color primaries : BT.709
Transfer characteristics : BT.709
Matrix coefficients : BT.709
Color range : Limited
Audio #1
ID : 2
Format : AC-3
Format/Info : Audio Coding 3
Mode extension : CM (complete main)
Format settings, Endianness : Big
Codec ID : A_AC3
Duration : 43mn 56s
Bit rate mode : Constant
Bit rate : 384 Kbps
Channel(s) : 6 channels
Channel positions : Front: L C R, Side: L R, LFE
Sampling rate : 48.0 KHz
Bit depth : 16 bits
Compression mode : Lossy
Stream size : 121 MiB (7%)
Language : Russian
Default : Yes
Forced : No
Audio #2
ID : 3
Format : AC-3
Format/Info : Audio Coding 3
Mode extension : CM (complete main)
Format settings, Endianness : Big
Codec ID : A_AC3
Duration : 43mn 56s
Bit rate mode : Constant
Bit rate : 384 Kbps
Channel(s) : 6 channels
Channel positions : Front: L C R, Side: L R, LFE
Sampling rate : 48.0 KHz
Bit depth : 16 bits
Compression mode : Lossy
Stream size : 121 MiB (7%)
Language : English
Default : No
Forced : No
-Как закачать отдельный файл из торрента или докачать ранее пропущенные файлы торрента!-

Внимание! Раздача ведётся путём добавления новых серий

Внимание! Раздача ведётся путём добавления новых серий; при каждом добавлении создаётся новый торрент. Чтобы начать докачку новой серии, пользователям необходимо сделать следующее: (1) остановить скачивание, (2) удалить старый торрент у себя из клиента (старые серии удалять не надо), (3) скачать новый торрент и запустить его у себя в клиенте вместо старого, при этом указать клиенту путь в старую папку куда и должно происходить скачивание новых серий.
Ваш клиент при этом должен произвести хеширование (проверку) старой папки (если не производит сам - помогите ему сделать это), и будет докачивать только те серии которых у вас ещё нет. Старые серии при этом не удаляются, а продолжают раздаваться!
Eсли вы уже удалили старые серии, то предотвратить повторную закачку старых серий можно, отжав галочку в соответствующих местах при запуске нового торрента.
Вне форума [Профиль] [ЛС]
Похожие темы
Форум Тема Автор Торрент Отв. Посл. сообщение
./templates/default/images/folder_dl.gif Справочные системы ЕГТС - Лето 2012, Версия 83.0 Professional (г. Москва и Московская область) [Rus] XP1971
2 | 0

0 | 9399

30

2017-04-02 14:21
XP1971 Последнее
Показать сообщения:    
Ответить на тему

Текущее время: Сегодня 19:17

Часовой пояс: GMT + 3



Вы не можете начинать темы
Вы не можете отвечать на сообщения
Вы не можете редактировать свои сообщения
Вы не можете удалять свои сообщения
Вы не можете голосовать в опросах
Вы не можете прикреплять файлы к сообщениям
Вы не можете скачивать файлы