Сегодня идет свободное скачивание без начисления Download

Розамунда Пилчер Кинороманы о любви / Rosamunde Pilcher / Сезон: 1 / Серии: 20 из 120 (Дитер Келер / Dieter Kehler, Штефан Бартманн / Stefan Bartmann и др.) [1993, драма, мелодрама, DVDRip] MVO

Ответить на тему
 
Автор
Сообщение

Omen ®

Стаж: 6 лет 1 месяц

Сообщений: 184308

Торрент-статистика

Пост 11-Фев-2016 18:00

[Цитировать]

Розамунда Пилчер Кинороманы о любви / Rosamunde Pilcher
Год выпуска: 1993-2012
Страна: Германия, Австрия
Жанр: драма, мелодрама
Продолжительность: около 90 мин ка
Перевод: Профессиональный (многоголосый закадровый)
Режиссёр: Дитер Келер / Dieter Kehler, Штефан Бартманн / Stefan Bartmann и др.
В ролях: Alexander-Klaus Stecher, Даниела Циглер, Колин Мэтьюз, Barbara Wussow, Диана Кернер, Патрик Фихте, Denise Zich, Майкл Ролль, Клаус Вильдбольц, Ренате Шретер, Рейнер Шёне, Лиза Кройцер, Alexandra Schalaudek, Кристин Майр, Моника Пайч, Marijam Agischewa, Мариэлла Аренс, Matthias Schloo
Описание: Экранизация произведений популярной английской писательницы Розамунд Пилчер:
Метель в апреле (одноименный роман)
Тайна белого голубя ("Человек, который слышал все")
В середине жизни("Цветы зимой")
Пустой дом (одноименный роман)
Спящий тигр (одноименный роман)
Шипы в долине цветов ("Голубая комната")
Небо над Корнуоллом ("Северный ветер")
Лорды не лгут ("Жаркий день")
Лето любви ("Мистер Грегори")
Игры света (Одноимённый роман)
Если это любовь ("Долгожданное возвращение")
Берег мечты ("Кукольный домик")
Мелодия сердца ("Лалла")
Пока ты есть ("На другом краю света")
Долгая дорога к счастью ("Уик-энд")
Над облаками ("Мой брат Билл")
Любовь всей её жизни ("Ощущение счастья")
Глубина чувств ("Джонатан")
Необузданное счастье ("Дом по соседству")
Взаимная любовь (Одноимённый роман)
Доп. информация: Розамунда Пилчер — популярная английская писательница, чьи книги изданы суммарным тиражом более 70 млн экземпляров. Многие из них переведены на русский язык. Начиная с 1993 года по настоящее время ведущий немецкий канал ZDF выпускает ежегодно в среднем 4 — 5 фильмов по её произведениям. Таких фильмов уже более 100, что говорит о большом успехе как книг Пилчер, так и самих экранизаций.
Книги Розамунды Пилчер о любви, дружбе отличаются особой лиричностью. Многие литературные критики секрет романов Пилчер видят в умелом сочетании трёх составляющих — деньги, счастье и непременный хеппи-энд.
Сэмпл:http://s2.sendfile.su/download/1203125/w4e60h1EYpnf...zFfT8z1pbrhIRhao
Качество: DVDRip
Формат: AVI
Видео: Input Type : XVID Input Size : 720 x 576 Output Type : YV12 Output Size : 720 x 576 Decode
Аудио: SampleRate(Sample/sec) : 44100 BitRate(Bit/sample) : 16 Channels : 2 KBitRate(KBit/sec) :
Субтитры: русские

Список серий

Season 1, Episode - 4,6,7,9,10,20,21,27,33,37,47,50,55,56,60,63,85,92,96,98

MediaInfo

General
Complete name : D:\kino\filmy_Rosamundy_Pilcher\Bereg_mechty.avi
Format : AVI
Format/Info : Audio Video Interleave
File size : 1.75 GiB
Duration : 1h 26mn
Overall bit rate : 2 896 Kbps
Writing application : MEncoder SVN-r30881(20100311-gcc4.3.3)
Writing library : VirtualDub build 35491/release
Video
ID : 0
Format : MPEG-4 Visual
Format profile : Advanced Simple@L5
Format settings, BVOP : 2
Format settings, QPel : No
Format settings, GMC : No warppoints
Format settings, Matrix : Default (H.263)
Codec ID : XVID
Codec ID/Hint : XviD
Duration : 1h 26mn
Bit rate : 2 759 Kbps
Width : 720 pixels
Height : 576 pixels
Display aspect ratio : 4:3
Frame rate : 25.000 fps
Standard : PAL
Color space : YUV
Chroma subsampling : 4:2:0
Bit depth : 8 bits
Scan type : Progressive
Compression mode : Lossy
Bits/(Pixel*Frame) : 0.266
Stream size : 1.66 GiB (95%)
Writing library : XviD 1.2.1 (UTC 2008-12-04)
Audio
ID : 1
Format : MPEG Audio
Format version : Version 1
Format profile : Layer 3
Mode : Joint stereo
Mode extension : MS Stereo
Codec ID : 55
Codec ID/Hint : MP3
Duration : 1h 26mn
Bit rate mode : Constant
Bit rate : 128 Kbps
Channel(s) : 2 channels
Sampling rate : 44.1 KHz
Compression mode : Lossy
Stream size : 79.1 MiB (4%)
Alignment : Split accross interleaves
Interleave, duration : 40 ms (1.00 video frame)
Interleave, preload duratio : 500 ms
Writing library : LAME3.98

Скриншоты

Вне форума [Профиль] [ЛС]
Показать сообщения:    
Ответить на тему

Текущее время: Сегодня 17:57

Часовой пояс: GMT + 3



Вы не можете начинать темы
Вы не можете отвечать на сообщения
Вы не можете редактировать свои сообщения
Вы не можете удалять свои сообщения
Вы не можете голосовать в опросах
Вы не можете прикреплять файлы к сообщениям
Вы не можете скачивать файлы