Сегодня идет свободное скачивание без начисления Download

Морская Полиция: Новый Орлеан / NCIS: New Orleans / Сезон: 2 / Серии: 1-14 из 24 (Тони Уормби, Джеймс Уитмор мл. и др.) [2015, Остросюжетный детектив, драма, HDTVRip-AVC] Original + Rus Subs (notabenoid)

Ответить на тему
 
Автор
Сообщение

Omen ®

Стаж: 5 лет 10 месяцев

Сообщений: 184329

Торрент-статистика

Пост 11-Фев-2016 12:03

[Цитировать]

Морская Полиция: Новый Орлеан 2 сезон / NCIS: New Orleans Season 2/
Год выпуска: 2015
Страна: США
Жанр: Остросюжетный детектив, драма
Продолжительность: 42 минуты
Перевод: Субтитры (notabenoid)
Режиссёр: Тони Уормби, Джеймс Уитмор мл. и др.
В ролях: Лукас Блэк, Пейдж Турко, Скотт Бакула, Зои МакЛеллан, Си Си Эйч Паундер, ЛаДжесси Смит, Бриттани Шоу
Описание: Остросюжетный детектив о приключениях команды специальных агентов. Их задача - расследовать преступления, связанные со служащими ВМС в Новом Орлеане и всём штате Луизиана. Новый Орлеан это город джаза, непрекращающегося ни днём ни ночью веселья и изощрённой преступности. И там где преступность пересекается со служащими флота, обязательно появляется Морская Полиция.
Сэмпл: Скачать сэмпл с yandex disk
Качество: HDTVRip-AVC
Формат: MP4
Видео: AVC; 720x404 (16/9); 23,976 fps; 1 133 Kbps;
Аудио: AAC LC; 119 Kbps; VBR; 2 ch;
Субтитры: Русские субтитры отдельным файлом (notabenoid)
11.02.2016 добавлена 14-я серия.
Просьба перекачать торрент!Моя скорость сидирования ~100 kbps, поэтому, пожалуйста, не уходите с раздачи.Внимание, раздача ведётся путём добавления новых серий.
Список серий:
1. Sic Semper Tyranis / "Такова участь тиранов" (лат.)
2. Shadow Unit / Отряд "Тень"
3. Touched by the Sun / Затронутые солнцем
4. I Do / "Да"
5. Foreign Affairs / "Иностранные Дела"
6. Insane in the Membrane / Безумие в каждой клетке
7. Broken Hearted / Разбитое Сердце
8. Confluence / Пересечение
9. Darkest Hour / Самый тёмный час
10. Billi and the Kid / Билли и Кид
11. Blue Christmas / Грустное Рождество
12. Sister City: Part Two / Города-побратимы ч.2
13. Undocumented / Незадокументировано
14. Father's Day / День отца

MediaInfo

General
Complete name :NCIS_New_Orleans_S02E01.hdtv-lol.mp4
Format : MPEG-4
Format profile : Base Media
Codec ID : isom
File size : 408 MiB
Duration : 43mn 5s
Overall bit rate mode : Variable
Overall bit rate : 1 324 Kbps
Encoded date : UTC 2015-09-22 14:38:19
Tagged date : UTC 2015-09-22 14:38:19
Video
ID : 1
Format : AVC
Format/Info : Advanced Video Codec
Format profile : High@L3.1
Format settings, CABAC : Yes
Format settings, ReFrames : 5 frames
Codec ID : avc1
Codec ID/Info : Advanced Video Coding
Duration : 43mn 4s
Bit rate : 1 198 Kbps
Maximum bit rate : 6 490 Kbps
Width : 720 pixels
Height : 404 pixels
Display aspect ratio : 16:9
Frame rate mode : Constant
Frame rate : 23.976 fps
Color space : YUV
Chroma subsampling : 4:2:0
Bit depth : 8 bits
Scan type : Progressive
Bits/(Pixel*Frame) : 0.172
Stream size : 369 MiB (90%)
Writing library : x264 core 148 r2597 e86f3a1
Encoding settings : cabac=1 / ref=5 / deblock=1:1:1 / analyse=0x3:0x133 / me=umh / subme=9 / psy=1 / psy_rd=1.00:0.00 / mixed_ref=1 / me_range=16 / chroma_me=1 / trellis=2 / 8x8dct=1 / cqm=0 / deadzone=21,11 / fast_pskip=0 / chroma_qp_offset=-2 / threads=16 / lookahead_threads=1 / sliced_threads=0 / nr=0 / decimate=1 / interlaced=0 / bluray_compat=0 / constrained_intra=0 / bframes=3 / b_pyramid=2 / b_adapt=2 / b_bias=0 / direct=3 / weightb=1 / open_gop=0 / weightp=2 / keyint=250 / keyint_min=23 / scenecut=40 / intra_refresh=0 / rc_lookahead=60 / rc=crf / mbtree=1 / crf=19.0 / qcomp=0.60 / qpmin=0 / qpmax=69 / qpstep=4 / ip_ratio=1.40 / aq=1:1.00
Encoded date : UTC 2015-09-22 14:37:49
Tagged date : UTC 2015-09-22 14:38:21
Color range : Limited
Matrix coefficients : BT.709
Audio
ID : 2
Format : AAC
Format/Info : Advanced Audio Codec
Format profile : LC
Codec ID : 40
Duration : 43mn 5s
Bit rate mode : Variable
Bit rate : 122 Kbps
Maximum bit rate : 148 Kbps
Channel(s) : 2 channels
Channel positions : Front: L R
Sampling rate : 48.0 KHz
Compression mode : Lossy
Stream size : 37.5 MiB (9%)
Encoded date : UTC 2015-09-22 14:38:21
Tagged date : UTC 2015-09-22 14:38:21
Вне форума [Профиль] [ЛС]
Похожие темы
Форум Тема Автор Торрент Отв. Посл. сообщение
./templates/default/images/folder_dl.gif Философия, Религия, Эзотерика Ноомахия - Дугин А.Г. - Дугин А.Г. Ноомахия. Войны ума. Англия или Британия Морская миссия и позитивный субъект. [2015, PDF/DjVu, RUS] Omen
1 | 0

0 | 1897

0

2016-12-12 01:00
Omen Последнее
Показать сообщения:    
Ответить на тему

Текущее время: Сегодня 04:07

Часовой пояс: GMT + 3



Вы не можете начинать темы
Вы не можете отвечать на сообщения
Вы не можете редактировать свои сообщения
Вы не можете удалять свои сообщения
Вы не можете голосовать в опросах
Вы не можете прикреплять файлы к сообщениям
Вы не можете скачивать файлы