Сегодня идет свободное скачивание без начисления Download

Тайны Любви / Les mystères de l\'amour / Сезон: 5 / Серии: 2 из 26 (Оливье Альтман) [2013, Мелодрама, DVDRip] Original + Rus Subs

Ответить на тему
 
Автор
Сообщение

Omen ®

Стаж: 5 лет 10 месяцев

Сообщений: 184329

Торрент-статистика

Пост 11-Фев-2016 03:00

[Цитировать]

-Тайны Любви / Les mystères de l'amour- -Год выпуска: 2013
Страна: Франция
Жанр: Мелодрама
Продолжительность: ~00:45:00-Перевод: Субтитры-Режиссёр: Оливье Альтман-В ролях: Жанна (Изабель Буис), Николя (Патрик Пюидеба), Бенедикт (Лор Гибер), Жозе (Филипп Вассёр), Анжель (Корали Колье), Кристиан (Себастьен Рок), Лали (Лали Меньян), Джимми (Том Шахт), Ольга (Маша Поликарпова), Ингрид (Кароль Дешантр), Руди (Лакшан Абенаяк), Элен (Элен Роллес)-Описание: Продолжение сериалов "Элен и ребята", "Грёзы любви" и "Каникулы любви". Прошли годы, а компания друзей до сих пор вместе. Они вернулись в Париж, в их жизни уже нет места музыке и глупым посиделкам в кафе у Альфредо. Теперь у них все по-взрослому. И если для одних все складывается удачно, то другие не могут свести концы с концами. У Жозе с Бенедикт свой ресторанный бизнес, Николя занимается фотографией, Кристиан же пытается найти себя после разрыва с Джоанной. Много приключений самого разного свойства поджидает друзей в Париже.-- -Качество: DVDRip
Формат: MKV
Видео: XviD, 1024x576 (16:9), 25.000 fps, ~3500 kbps avg, 0.24 bit/pixel
Аудио: 48 kHz, MP3, 2/0 (L,R) ch, ~128 kbps avg-

Список серий

01 - Свадебная суета (Bruits de noce)
02 - Союзы (Des unions)
-

MediaInfo

Complete name : D:\Тайны любви (Les mystères de l'amour)\LMystDL+s5e01+-+Bruits+de+noce.mkv
Format : Matroska
Format version : Version 4 / Version 2
File size : 1.17 GiB
Duration : 44mn 2s
Overall bit rate : 3 789 Kbps
Encoded date : UTC 2016-02-08 16:50:05
Writing application : mkvmerge v8.6.0 ('A Place In Your World') 64bit
Writing library : libebml v1.3.3 + libmatroska v1.4.4
DURATION : 00:43:56.757000000
NUMBER_OF_FRAMES : 807
NUMBER_OF_BYTES : 46915
_STATISTICS_WRITING_APP : mkvmerge v8.6.0 ('A Place In Your World') 64bit
_STATISTICS_WRITING_DATE_UTC : 2016-02-08 16:50:05
_STATISTICS_TAGS : BPS DURATION NUMBER_OF_FRAMES NUMBER_OF_BYTES
Video
ID : 1
Format : MPEG-4 Visual
Format profile : Advanced Simple@L5
Format settings, BVOP : No
Format settings, QPel : No
Format settings, GMC : No warppoints
Format settings, Matrix : Default (H.263)
Codec ID : V_MS/VFW/FOURCC / XVID
Codec ID/Hint : XviD
Duration : 44mn 2s
Bit rate : 3 586 Kbps
Width : 1 024 pixels
Height : 576 pixels
Display aspect ratio : 16:9
Frame rate mode : Constant
Frame rate : 25.000 fps
Color space : YUV
Chroma subsampling : 4:2:0
Bit depth : 8 bits
Scan type : Progressive
Compression mode : Lossy
Bits/(Pixel*Frame) : 0.243
Stream size : 1.10 GiB (95%)
Writing library : XviD 62
Language : French
Default : Yes
Forced : No
Audio
ID : 2
Format : MPEG Audio
Format version : Version 1
Format profile : Layer 3
Codec ID : A_MPEG/L3
Codec ID/Hint : MP3
Duration : 44mn 2s
Bit rate mode : Constant
Bit rate : 128 Kbps
Channel(s) : 2 channels
Sampling rate : 44.1 KHz
Compression mode : Lossy
Stream size : 40.3 MiB (3%)
Writing library : LAMELAME_MAJOR_VERSI
Language : French
Default : Yes
Forced : No
Text
ID : 3
Format : UTF-8
Codec ID : S_TEXT/UTF8
Codec ID/Info : UTF-8 Plain Text
Language : Russian
Default : Yes
Forced : No

Скриншоты

Вне форума [Профиль] [ЛС]
Похожие темы
Форум Тема Автор Торрент Отв. Посл. сообщение
./templates/default/images/folder_dl.gif Приключения и квесты Secrets of the Dark: The Flower of Shadow Collector\'s Edition / Тайны Тьмы: Цветок Теней. Коллекционное издание [P] [RUS / ENG] (2014) Omen
6 | 0

0 | 1419

19

2015-06-11 12:04
Omen Последнее
Показать сообщения:    
Ответить на тему

Текущее время: Сегодня 23:25

Часовой пояс: GMT + 3



Вы не можете начинать темы
Вы не можете отвечать на сообщения
Вы не можете редактировать свои сообщения
Вы не можете удалять свои сообщения
Вы не можете голосовать в опросах
Вы не можете прикреплять файлы к сообщениям
Вы не можете скачивать файлы