Сегодня идет свободное скачивание без начисления Download

Хроники Франкенштейна / The Frankenstein Chronicles / Сезон: 1 / Серии: 1-6 из 6 (Бенджамин Росс) [2015, драма, криминал, HDTVRip 720p] Original + Rus Subs (N-Team) + Eng Subs

Ответить на тему
 
Автор
Сообщение

Omen ®

Стаж: 5 лет 6 месяцев

Сообщений: 186946

Торрент-статистика

Пост 11-Фев-2016 03:00

[Цитировать]

Хроники Франкенштейна / The Frankenstein Chronicles
Год выпуска: 2015
Страна: Великобритания
Жанр: драма, криминал
Продолжительность: ~48 минут
Перевод: Субтитры N-Team
Режиссёр: Бенджамин Росс
В ролях:
В ролях: Шон Бин, Ричи Кэмпелл, Ванесса Кирби, Элуиз Смит, Эллиот Кауэн, Том Уорд, Райан Сэмпсон, Чарли Крид-Майлз, Стюарт Грэхэм, Джесси Росс
Описание: Инспектор полиции Джон Марлотт разыскивает маньяка, возомнившего себя Франкенштейном. Злодей воплощает действия книжного доктора в реальность — создает монстра из частей человеческих тел. Марлотт, обнаруживший одно из ужасных созданий убийцы, вынужден работать тайно и в одиночку бродить по Лондону 19-го века в поисках чудовища.
Сэмпл: http://multi-up.com/1088592
Качество: HDTVRip 720p
Контейнер: MKV
Видео: H.264, 1280x720 (16:9), 25.000 fps, 2380 kbps, 0.103 bit/pixel
Аудио: AC3, 48 KHz, 2 ch, 384 Kbps, [Eng]
Субтитры: softsub (SRT), русские, английские

Список серий

1. World Without God / Мир без Бога
2. Seeing Things / Видения
3. All the Lost Children / Все пропавшие дети
4. The Fortune of War / Наследие войны
5. The Frankentsein Murders / Убийства Франкенштейна
6. Lost and Found / Ушедшие и вернувшиеся

MediaInfo

General
Unique ID : 0 (0x0)
Complete name : D:\Видео\The Frankenstein Chronicles Season 1 HD 720p [N-Team]\The.Frankenstein.Chronicles.S01E01.720p.mkv
Format : Matroska
Format version : Version 4 / Version 2
File size : 947 MiB
Duration : 46mn 57s
Overall bit rate : 2 820 Kbps
Encoded date : UTC 2010-02-22 21:41:29
Writing application : no_variable_data
Writing library : no_variable_data
Video
ID : 1
Format : AVC
Format/Info : Advanced Video Codec
Format profile : High@L4.1
Format settings, CABAC : Yes
Format settings, ReFrames : 5 frames
Codec ID : V_MPEG4/ISO/AVC
Duration : 46mn 58s
Bit rate : 2 380 Kbps
Width : 1 280 pixels
Height : 720 pixels
Display aspect ratio : 16:9
Frame rate mode : Constant
Frame rate : 25.000 fps
Color space : YUV
Chroma subsampling : 4:2:0
Bit depth : 8 bits
Scan type : Progressive
Bits/(Pixel*Frame) : 0.103
Stream size : 799 MiB (84%)
Writing library : x264 core 148 r2638 7599210
Encoding settings : cabac=1 / ref=5 / deblock=1:0:0 / analyse=0x3:0x113 / me=umh / subme=8 / psy=1 / psy_rd=1.00:0.00 / mixed_ref=1 / me_range=16 / chroma_me=1 / trellis=1 / 8x8dct=1 / cqm=0 / deadzone=21,11 / fast_pskip=1 / chroma_qp_offset=-2 / threads=12 / lookahead_threads=2 / sliced_threads=0 / nr=0 / decimate=1 / interlaced=0 / bluray_compat=0 / constrained_intra=0 / bframes=3 / b_pyramid=2 / b_adapt=2 / b_bias=0 / direct=3 / weightb=1 / open_gop=0 / weightp=2 / keyint=250 / keyint_min=25 / scenecut=40 / intra_refresh=0 / rc_lookahead=50 / rc=crf / mbtree=1 / crf=18.0 / qcomp=0.60 / qpmin=0 / qpmax=69 / qpstep=4 / ip_ratio=1.40 / aq=1:1.00
Default : Yes
Forced : No
Matrix coefficients : BT.709
Color range : Limited
Audio
ID : 2
Format : AC-3
Format/Info : Audio Coding 3
Mode extension : CM (complete main)
Format settings, Endianness : Big
Codec ID : A_AC3
Duration : 46mn 57s
Bit rate mode : Constant
Bit rate : 384 Kbps
Channel(s) : 2 channels
Channel positions : Front: L R
Sampling rate : 48.0 KHz
Bit depth : 16 bits
Compression mode : Lossy
Stream size : 129 MiB (14%)
Title : English
Language : English
Default : Yes
Forced : No

Скриншоты

Внимание! Раздача ведётся путём добавления новых серий

Внимание! Раздача ведётся путём добавления новых серий; при каждом добавлении создётся новый торрент. Чтобы начать докачку новой серии, пользователям необходимо сделать следующее:
-Остановить скачивание.
-Удалить старый торрент у себя из клиента (старые серии удалять не надо).
-Скачать новый торрент и запустить его у себя в клиенте вместо старого, при этом указать клиенту путь в старую папку куда и должно происходить скачивание новых серий.
Ваш клиент при этом должен произвести хеширование (проверку) старой папки (если не производит сам - помогите ему сделать это), и будет докачивать только те серии которых у вас ещё нет. Старые серии при этом не удаляются, а продолжают раздаваться!
Если вы уже удалили старые серии, то предотвратить повторную закачку старых серий можно, отжав галочку в соответствующих местах при запуске нового торрента. По возможности, желательно не удалять старые серии как можно дольше чтобы релизёр не столько продолжал раздавать старые серии, а смог сконцентрироваться на новых.
Вне форума [Профиль] [ЛС]
Похожие темы
Форум Тема Автор Торрент Отв. Посл. сообщение
./templates/default/images/folder_dl.gif Детская литература (Хроники Нарнии 2) Клайв Стейплз Льюис «Конь и его мальчик» «Королевич Каспиан» [Д. Филимонов, В. Анисимова, Т. Шатилова, Т. Аксюта, А. Борзунов, А. Покровская, 192 кбит/с] Omen
1 | 0

0 | 891

4

2011-09-27 09:02
Omen Последнее
./templates/default/images/folder_dl.gif Детская литература (Хроники Нарнии 3) Клайв Стейплз Льюис «Путешествие «Покорителя зари» «Серебряное кресло» «Последняя битва» [ Т. Шатилова, Т. Аксюта, А. Борзунов, А. Покровская и др., 128-192 кбит/с] Omen
1 | 0

0 | 989

3

2011-09-27 09:07
Omen Последнее
./templates/default/images/folder_dl.gif Детская литература Клайв Стейплз Льюис | Нарния. Спектакль по мотивам сказок "Хроники Нарнии" [2004-2010] [MP3] Omen
0 | 1

0 | 901

0

2011-09-30 22:06
Omen Последнее
./templates/default/images/folder_dl.gif Фантастика, фэнтези, ужасы, мистика Андрей Лобурец | Хроники Лешего. Книга первая. Новобранец (2018) [FB2] }{@R0N
1 | 0

0 | 308

6

2018-05-02 21:53
}{@R0N Последнее
Показать сообщения:    
Ответить на тему

Текущее время: Сегодня 02:16

Часовой пояс: GMT + 3



Вы не можете начинать темы
Вы не можете отвечать на сообщения
Вы не можете редактировать свои сообщения
Вы не можете удалять свои сообщения
Вы не можете голосовать в опросах
Вы не можете прикреплять файлы к сообщениям
Вы не можете скачивать файлы