Сегодня идет свободное скачивание без начисления Download

Медики Чикаго / Chicago Med / Сезон: 1 / Серии: 1-3 из 18 (Фред Бернер, Майкл Ваксман) [2015, Драма, WEB-DL 720p] VO (Денис Шадинский) + Original + Subs (eng)

Ответить на тему
 
Автор
Сообщение

Omen ®

Стаж: 5 лет 9 месяцев

Сообщений: 184402

Торрент-статистика

Пост 11-Фев-2016 00:00

[Цитировать]

Медики Чикаго / Chicago Med- Год выпуска: 2015
Страна: США
Жанр: Драма
Продолжительность: ~ 00:43:00
Перевод: Профессиональный (одноголосый закадровый) Денис Шадинский-Режиссёр: Фред Бернер, Майкл Ваксман
В ролях: Оливер Плэтт, С. Ипейта Меркерсон, Ник Гелфусс, Йайа ДаКоста, Колин Доннелл, Брайан Ти, Торри ДеВито, Рэйчел ДиПилло, Марлайн Эффлэк, Андре Беллос-Описание: Сериал рассказывает о команде врачей, работающих в чикагской больнице. Каждый день им приходится работать в полном хаосе и разбираться с уникальными случаями- -Релиз:
Работа со звуком: SerGV
Источник: iTunes
Большое спасибо Денису Шадинскому за предоставление чистых студийных голосов.-Семпл - [/url][url=http://multi-up.com/1088566]http://multi-up.com/1088566-Качество: WEB-DL 720p
Формат: MKV
Видео кодек: MPEG-4 AVC
Аудио кодек: AC3
Видео: MPEG-4 AVC, ~3992 kbps, 1280x720 (16:9), 23.976 fps, 0.181 bit/pixel
Аудио #1: Russian: АС3, 48 kHz, 6 ch, ~384 kbps - Денис Шадинский
Аудио #2: Englbsh: АС3, 48 kHz, 6 ch, ~384 kbps
Субтитры: Английские-

MediaInfo

General
Unique ID : 239067091387277391675092543466328529068 (0xB3DAA5A1ECD6C271B88D6BB8E4D798AC)
Complete name : ...Chicago.Med.S01E01.720p.WEB-DL.Rus.Eng.CasStudio.mkv
Format : Matroska
Format version : Version 4 / Version 2
File size : 1.43 GiB
Duration : 42mn 51s
Overall bit rate : 4 763 Kbps
Movie name : Chicago Med (2015) S01E01 - Derailed @ release by SerGV for CasStudio
Encoded date : UTC 2016-02-10 12:32:43
Writing application : mkvmerge v8.3.0 ('Over the Horizon') 64bit
Writing library : libebml v1.3.1 + libmatroska v1.4.2
Cover : Yes
Attachments : cover.jpg
Video
ID : 1
Format : AVC
Format/Info : Advanced Video Codec
Format profile : High@L3.1
Format settings, CABAC : No
Format settings, ReFrames : 2 frames
Codec ID : V_MPEG4/ISO/AVC
Duration : 42mn 51s
Bit rate : 3 992 Kbps
Width : 1 280 pixels
Height : 720 pixels
Display aspect ratio : 16:9
Frame rate mode : Constant
Frame rate : 23.976 (24000/1001) fps
Color space : YUV
Chroma subsampling : 4:2:0
Bit depth : 8 bits
Scan type : Progressive
Bits/(Pixel*Frame) : 0.181
Stream size : 1.20 GiB (84%)
Language : English
Default : Yes
Forced : No
Color range : Limited
Color primaries : BT.709
Transfer characteristics : BT.709
Matrix coefficients : BT.709
Audio #1
ID : 2
Format : AC-3
Format/Info : Audio Coding 3
Mode extension : CM (complete main)
Format settings, Endianness : Big
Codec ID : A_AC3
Duration : 42mn 51s
Bit rate mode : Constant
Bit rate : 384 Kbps
Channel(s) : 6 channels
Channel positions : Front: L C R, Side: L R, LFE
Sampling rate : 48.0 KHz
Frame rate : 31.250 fps (1536 spf)
Compression mode : Lossy
Stream size : 118 MiB (8%)
Title : DD 5.1 @ 384 Kbps - Одноголосый закадровый, Денис Шадинский
Language : Russian
Default : Yes
Forced : No
Audio #2
ID : 3
Format : AC-3
Format/Info : Audio Coding 3
Mode extension : CM (complete main)
Format settings, Endianness : Big
Codec ID : A_AC3
Duration : 42mn 51s
Bit rate mode : Constant
Bit rate : 384 Kbps
Channel(s) : 6 channels
Channel positions : Front: L C R, Side: L R, LFE
Sampling rate : 48.0 KHz
Frame rate : 31.250 fps (1536 spf)
Compression mode : Lossy
Stream size : 118 MiB (8%)
Title : DD 5.1 @ 384 Kbps - Original
Language : English
Default : No
Forced : No
Text
ID : 4
Format : UTF-8
Codec ID : S_TEXT/UTF8
Codec ID/Info : UTF-8 Plain Text
Duration : 42mn 44s
Bit rate : 104 bps
Count of elements : 798
Stream size : 32.6 KiB (0%)
Language : English
Default : No
Forced : No

Скриншоты

Ссылка на предыдущие и альтернативные раздачи

Раздача ведется путем добавления новых серий

Когда раздача ведётся путём добавления новых серий, при каждом добавлении создётся новый торрент. Чтобы начать докачку новой серии, пользователям необходимо сделать следующее:
1. остановить скачивание,
2. удалить старый торрент у себя из клиента (старые серии удалять не надо),
3. скачать новый торрент и запустить его у себя в клиенте вместо старого, при этом указать клиенту путь в старую папку, куда и должно происходить скачивание новых серий.
Ваш клиент при этом должен произвести хеширование (проверку) старой папки (если не производит сам - помогите ему сделать это), и будет докачивать только те серии, которых у вас ещё нет. Старые серии при этом не удаляются, а продолжают раздаваться!
Eсли вы уже удалили старые серии, то предотвратить повторную закачку старых серий можно, отжав галочку в соответсвующих местах при запуске нового торрента. По возможности, желательно не удалять старые серии как можно дольше, чтобы релизёр не столько продолжал раздавать старые серии, а смог сконцентрироваться на новых.
Вне форума [Профиль] [ЛС]
Показать сообщения:    
Ответить на тему

Текущее время: Сегодня 03:02

Часовой пояс: GMT + 3



Вы не можете начинать темы
Вы не можете отвечать на сообщения
Вы не можете редактировать свои сообщения
Вы не можете удалять свои сообщения
Вы не можете голосовать в опросах
Вы не можете прикреплять файлы к сообщениям
Вы не можете скачивать файлы