Сегодня идет свободное скачивание без начисления Download

Война и мир / War and Peace / Сезон: 1 / Серии: 1-6 из 6 (Том Харпер) [2016, США, Великобритания, драма, мелодрама, военный, история, WEB-DLRip] MVO (NewStudio) + Original

Ответить на тему
 
Автор
Сообщение

Omen ®

Стаж: 5 лет 7 месяцев

Сообщений: 185412

Торрент-статистика

Пост 10-Фев-2016 21:00

[Цитировать]

Война и мирWar and Peace-Год выпуска: 2015
Страна: США, Великобритания
Жанр: драма, мелодрама, военный, история
Продолжительность: 00:59:00-Перевод: Профессиональный (многоголосый, закадровый) (NewStudio)-Режиссер: Том Харпер / Tom Harper
В ролях:
Анейрин Барнард (Boris Drubetskoy), Пол Дано (Pierre Bezukhov), Лили Джеймс (Natasha Rostova), Джеймс Нортон (Prince Andrei Bolkonsky), Оливия Росс (Mademoiselle Bourienne), Рори Кинэн (Bilibin), Гийом Форе (Napoleon's Adjutant), Дэвид Куилтер (Tikhon), Кит Коннор (Petya Rostov (aged 9-10)), Отто Фаррант (Petya Rostov), Хлоя Пирри (Julie Karegina), Теренс Бисли (General Bennigsen)-Описание: Действие сериала развивается в России XIX века, охватывая период с 1805 по 1812 годы. В основу сюжета положен роман Льва Толстого "Война и мир", основное внимание сфокусировано на судьбах Пьера Безухова, Андрея Болконского и Наташи Ростовой.- --Релиз:
Перевод: Ирина Гвозденко-Семпл |-Качество: WEB-DLRip
Контейнер: AVI
Видео: 720x400 (1.80:1), 25 fps, XviD MPEG-4 ~1387 kbps avg, 0.19 bit/pixel
Аудио №1: MP3, 48 kHz, 2 ch, 128 kbps - Rus
Аудио №2: MP3, 48 kHz, 2 ch, 128 kbps - Eng
Субтитры: нет-

Скриншоты

MediaInfo

Общее
Полное имя : D:\War.and.Peace.2016.s01e02.WEBDLRip.NewStudio.TV.avi
Формат : AVI
Формат/Информация : Audio Video Interleave
Размер файла : 700 Мбайт
Продолжительность : 58 м.
Общий поток : 1659 Кбит/сек
Программа кодирования : VirtualDubMod 1.5.10.2 (build 2540/release)
Библиотека кодирования : VirtualDubMod build 2540/release
Видео
Идентификатор : 0
Формат : MPEG-4 Visual
Профиль формата : Advanced Simple@L5
Параметр BVOP формата : 2
Параметр QPel формата : Нет
Параметр GMC формата : Без точки перехода
Параметр матрицы формата : Default (MPEG)
Идентификатор кодека : XVID
Идентификатор кодека/Подсказка : XviD
Продолжительность : 58 м.
Битрейт : 1388 Кбит/сек
Ширина : 720 пикселей
Высота : 400 пикселей
Соотношение сторон : 16:9
Частота кадров : 25,000 кадров/сек
Цветовое пространство : YUV
Субдискретизация насыщенности : 4:2:0
Битовая глубина : 8 бит
Тип развёртки : Прогрессивная
Метод сжатия : С потерями
Бит/(Пиксели*Кадры) : 0.193
Размер потока : 586 Мбайт (84%)
Библиотека кодирования : XviD 73
Аудио #1
Идентификатор : 1
Формат : MPEG Audio
Версия формата : Version 1
Профиль формата : Layer 3
Режим : Joint stereo
Расширение режима : MS Stereo
Идентификатор кодека : 55
Идентификатор кодека/Подсказка : MP3
Продолжительность : 58 м.
Вид битрейта : Постоянный
Битрейт : 128 Кбит/сек
Каналы : 2 канала
Частота : 48,0 КГц
Метод сжатия : С потерями
Размер потока : 54,0 Мбайт (8%)
Выравнивание : Соединение по промежуткам
Продолжительность промежутка : 40 мс. (1,00 видеокадр)
Время предзагрузки промежутка : 504 мс.
Аудио #2
Идентификатор : 2
Формат : MPEG Audio
Версия формата : Version 1
Профиль формата : Layer 3
Режим : Joint stereo
Расширение режима : MS Stereo
Идентификатор кодека : 55
Идентификатор кодека/Подсказка : MP3
Продолжительность : 58 м.
Вид битрейта : Постоянный
Битрейт : 128 Кбит/сек
Каналы : 2 канала
Частота : 48,0 КГц
Метод сжатия : С потерями
Размер потока : 54,0 Мбайт (8%)
Выравнивание : Соединение по промежуткам
Продолжительность промежутка : 40 мс. (1,00 видеокадр)
Время предзагрузки промежутка : 504 мс.
Библиотека кодирования : LAME3.99r
Настройки программы : -m j -V 4 -q 2 -lowpass 17 -b 128
-Как закачать отдельный файл из торрента или докачать ранее пропущенные файлы торрента!-

Внимание! Раздача ведётся путём добавления новых серий

Внимание! Раздача ведётся путём добавления новых серий; при каждом добавлении создаётся новый торрент. Чтобы начать докачку новой серии, пользователям необходимо сделать следующее: (1) остановить скачивание, (2) удалить старый торрент у себя из клиента (старые серии удалять не надо), (3) скачать новый торрент и запустить его у себя в клиенте вместо старого, при этом указать клиенту путь в старую папку куда и должно происходить скачивание новых серий.
Ваш клиент при этом должен произвести хеширование (проверку) старой папки (если не производит сам - помогите ему сделать это), и будет докачивать только те серии которых у вас ещё нет. Старые серии при этом не удаляются, а продолжают раздаваться!
Eсли вы уже удалили старые серии, то предотвратить повторную закачку старых серий можно, отжав галочку в соответствующих местах при запуске нового торрента.
Оформление: Tri@x
Вне форума [Профиль] [ЛС]
Похожие темы
Форум Тема Автор Торрент Отв. Посл. сообщение
./templates/default/images/folder_dl.gif Фантастика, фэнтези, ужасы, мистика Шимун Врочек | Метро 2035: Питер. Война (2018) [FB2] }{@R0N
1 | 0

0 | 173

4

2018-03-28 22:52
}{@R0N Последнее
Показать сообщения:    
Ответить на тему

Текущее время: Сегодня 10:45

Часовой пояс: GMT + 3



Вы не можете начинать темы
Вы не можете отвечать на сообщения
Вы не можете редактировать свои сообщения
Вы не можете удалять свои сообщения
Вы не можете голосовать в опросах
Вы не можете прикреплять файлы к сообщениям
Вы не можете скачивать файлы