Сегодня идет свободное скачивание без начисления Download

Тайны Лоры / The Mysteries of Laura / Сезон: 2 / Серии: 1-11 (16) (Jeff Rake) [2015, детектив, комедия, HDTVRip] DVO (Kiitos)

Ответить на тему
 
Автор
Сообщение

Omen ®

Стаж: 6 лет 1 месяц

Сообщений: 184308

Торрент-статистика

Пост 10-Фев-2016 18:00

[Цитировать]

Тайны Лоры / The Mysteries of Laura
Год выпуска: 2015
Страна: США
Жанр: детектив, комедия
Продолжительность: ~43 мин
Перевод: Любительский (двухголосый закадровый) Kiitos
Перевод: dimambo
Озвучивание: kiitos, Chertenok
Cведение: kiitos
Режиссёр: Jeff Rake
В ролях: Дебра Мессинг, Джош Лукас, Лас Алонсо, Янина Гаванкар, Илана Бекер, Мерли Бермудез, Лайла Элиз, Дэн Финнерти
Описание: Лора Даймонд — блестящий детектив из отдела убийств департамента полиции Нью-Йорка. Каждый день ей приходится справляться не только со своей нелегкой работой, но и с сумасшедшей семейной жизнью — у нее двое непослушных мальчиков-близнецов и муж-полицейский, с которым они вот-вот должны развестись.
Качество: HDTVRip
Формат: AVI
Видео: XviD,720x400(16:9) 23.976fps 1428kbps
Аудио: RUS: MP3 48000Hz stereo 192kbps
Субтитры: нет
Сэмпл
Добавлена 11 серия. Торрент обновлен 10.02.2016

MediaInfo

General
Format : AVI
Format/Info : Audio Video Interleave
File size : 501 MiB
Duration : 42mn 59s
Overall bit rate : 1 629 Kbps
Writing application : VirtualDubMod 1.5.10.2 (build 2540/release)
Writing library : VirtualDubMod build 2540/release
Video
ID : 0
Format : MPEG-4 Visual
Format profile : Advanced Simple@L5
Format settings, BVOP : 2
Format settings, QPel : No
Format settings, GMC : No warppoints
Format settings, Matrix : Default (MPEG)
Codec ID : XVID
Codec ID/Hint : XviD
Duration : 42mn 59s
Bit rate : 1 428 Kbps
Width : 720 pixels
Height : 400 pixels
Display aspect ratio : 16:9
Frame rate : 23.976 fps
Color space : YUV
Chroma subsampling : 4:2:0
Bit depth : 8 bits
Scan type : Progressive
Compression mode : Lossy
Bits/(Pixel*Frame) : 0.207
Stream size : 439 MiB (88%)
Writing library : XviD 73
Audio
ID : 1
Format : MPEG Audio
Format version : Version 1
Format profile : Layer 3
Mode : Joint stereo
Codec ID : 55
Codec ID/Hint : MP3
Duration : 42mn 59s
Bit rate mode : Constant
Bit rate : 192 Kbps
Channel(s) : 2 channels
Sampling rate : 48.0 KHz
Compression mode : Lossy
Stream size : 59.0 MiB (12%)
Alignment : Aligned on interleaves
Interleave, duration : 42 ms (1.00 video frame)
Interleave, preload duration : 504 ms

Внимание! Раздача ведётся путём добавления новых серий

Внимание! Раздача ведётся путём добавления новых серий; при каждом добавлении создётся новый торрент. Чтобы начать докачку новой серии, пользователям необходимо сделать следующее:
(1) остановить скачивание,
(2) удалить старый торрент у себя из клиента (старые серии удалять не надо),
(3) скачать новый торрент и запустить его у себя в клиенте вместо старого, при этом указать клиенту путь в старую папку куда и должно происходить скачивание новых серий.
Ваш клиент при этом должен произвести хеширование (проверку) старой папки (если не производит сам - помогите ему сделать это), и будет докачивать только те серии которых у вас ещё нет. Старые серии при этом не удаляются, а продолжают раздаваться!
Eсли вы уже удалили старые серии, то предотвратить повторную закачку старых серий можно, отжав галочку в соответсвующих местах при запуске нового торрента.

Скриншоты

Вне форума [Профиль] [ЛС]
Похожие темы
Форум Тема Автор Торрент Отв. Посл. сообщение
./templates/default/images/folder_dl.gif Приключения, детектив, боевик, триллер Андрей Ильин | Обет молчания. Тайные люди или Записки невидимки (1 книга из 10) [2013] [MP3] UndegraundMen
1 | 0

0 | 998

5

2013-06-11 03:05
UndegraundMen Последнее
./templates/default/images/folder_dl.gif Приключения и квесты Secrets of the Dark: The Flower of Shadow Collector\'s Edition / Тайны Тьмы: Цветок Теней. Коллекционное издание [P] [RUS / ENG] (2014) Omen
5 | 0

0 | 1530

21

2015-06-11 12:04
Omen Последнее
./templates/default/images/folder_dl.gif Фантастика, фэнтези, ужасы, мистика Злотников Роман, Ремер Михаил - Исправленная летопись 02: Тайны митрополита [Максим Суслов, 2016 г., 112 kbps, MP3] Omen
1 | 0

0 | 986

7

2016-08-23 01:01
Omen Последнее
Показать сообщения:    
Ответить на тему

Текущее время: Сегодня 23:46

Часовой пояс: GMT + 3



Вы не можете начинать темы
Вы не можете отвечать на сообщения
Вы не можете редактировать свои сообщения
Вы не можете удалять свои сообщения
Вы не можете голосовать в опросах
Вы не можете прикреплять файлы к сообщениям
Вы не можете скачивать файлы