Сегодня идет свободное скачивание без начисления Download

Во все тяжкие / Breaking Bad / Сезон: 1-5 / Серии: 1-62 из 62 (Винс Гиллиган) [2008 - 2013, Драма, Криминал, BDRip 1080p] MVO (LostFilm)

Ответить на тему
 
Автор
Сообщение

Omen ®

Стаж: 6 лет 1 месяц

Сообщений: 184308

Торрент-статистика

Пост 10-Фев-2016 15:00

[Цитировать]

Во все тяжкие / Breaking Bad
Год выпуска: 2008
Страна: США
Жанр: Драма, Криминал
Продолжительность: ~ 50 мин
Перевод: Профессиональный (многоголосый закадровый) LostFilm
Режиссёр: Винс Гиллиган
В ролях: Брайан Крэнстон, Анна Ганн, Аарон Пол, Дин Норрис, Бетси Брандт, Эр Джей, Боб Оденкёрк, Джанкарло Эспозито, Джонатан Бэнкс, Стивен Майкл Квезада, Чарльз Бэйкер, Кристен Риттер, Мэтт Джонс, Кристофер Казинс, Кармен Серано, Джереми Битсуи, Майкл Шамус Уайлз, Дэвид Хаус, Дэвид Костабайл, Дэниэл Монкада, Рэй Кэмпбелл, Мариус Стэн, Родни Раш, Луис Монкада, Марк Марголис, Рэймонд Крус, Тесс Харпер, Джон де Ланси, Тина Паркер, Морис Комт
Описание: Школьный учитель химии Уолтер Уайт узнаёт, что болен раком лёгких. Учитывая сложное финансовое состояние дел семьи, а также перспективы, Уолтер решает заняться изготовлением метамфетамина. Для этого он привлекает своего бывшего ученика Джесси Пинкмана, когда-то исключённого из школы при активном содействии Уайта. Пинкман сам занимался «варкой мета», но накануне, в ходе рейда УБН, он лишился подельника и лаборатории…
Сэмпл: https://www.sendspace.com/file/734voe
Качество: BDRip 1080p
Контейнер: MKV
Видео: 1920x1080 at 23.976 fps, MPEG-4 AVC, ~23,5 Mbps avg
Аудио: Russian; AAC; 471 Kbps; CBR; 6 ch; 24 bit (Многоголосый закадровый, LostFilmTV)
Субтитры: Русские, английские

Список серий

1 Сезон
1. «Пилотная серия»
2. «Кот в мешке…»
3. «… и мешок в реке»
4. «Раковый больной»
5. «Серое вещество»
6. «Пригоршня ничего»
7. «Бизнес «по-взрослому»»
2 Сезон
1. «Семьсот тридцать семь»
2. «Попандос»
3. «Укус мёртвой пчелы»
4. «На дне»
5. «Бой товара»
6. «Игра в прятки»
7. «Чёрный и голубой»
8. «Лучше позвони Солу»
9. «Четыре дня отсутствия»
10. «Конец бизнеса»
11. «Мандала»
12. «Феникс»
13. «Альбукерке»
3 Сезон
1. «Хватит!»
2. «Безымянный конь»
3. «Я.П.Т. (Я переспала с Тедом)»
4. «Зелёный свет»
5. «Ещё»
6. «Закат»
7. «Одна минута»
8. «Я вижу тебя»
9. «По-кафкиански»
10. «Муха»
11. «Эбикью»
12. «Полумеры»
13. «Полная мера»
4 Сезон
1. «Канцелярский нож»
2. «Тридцать восьмой, курносый»
3. «Открытый дом»
4. «Пулевые отверстия»
5. «Дробовик»
6. «Загнанный в угол»
7. «Проблемный пёс»
8. «Братья»
9. «Жучок»
10. «Здоровье»
11. «Фальшпол»
12. «Конец света»
13. «Без лица»
5 Сезон
1 Часть
1. «Живи свободным или умри»
2. «Мадригал»
3. «Опасные условия»
4. «Пятьдесят один»
5. «Мёртвый груз»
6. «Выкуп»
7. «Произнеси моё имя»
8. «Летящий над всем»
2 Часть
9. «Кровавые деньги»
10. «Зарытое»
11. «Признания»
12. «Бешеный пёс»
13. «Тохаджилли»
14. «Озимандия»
15. «Гранитный штат»
16. «Фелина»

MediaInfo

Format : MPEG-4
Format profile : Base Media
Codec ID : isom (isom/iso2/avc1/mp41)
File size : 2.89 GiB
Duration : 47mn 22s
Overall bit rate mode : Variable
Overall bit rate : 8 747 Kbps
Movie name : ReJIiZ MediaClub by BenderBEST
Encoded date : UTC 2014-07-28 23:58:20
Tagged date : UTC 2014-07-28 23:58:20
Writing application : Lavf51.12.1
Video
ID : 1
Format : AVC
Format/Info : Advanced Video Codec
Format profile : Baseline@L4
Format settings, CABAC : No
Format settings, ReFrames : 1 frame
Format settings, GOP : M=1, N=12
Codec ID : avc1
Codec ID/Info : Advanced Video Coding
Duration : 47mn 22s
Bit rate mode : Variable
Bit rate : 8 283 Kbps
Maximum bit rate : 12.0 Mbps
Width : 1 920 pixels
Height : 1 080 pixels
Display aspect ratio : 16:9
Frame rate mode : Constant
Frame rate : 25.000 fps
Original frame rate : 24.000 fps
Color space : YUV
Chroma subsampling : 4:2:0
Bit depth : 8 bits
Scan type : Progressive
Bits/(Pixel*Frame) : 0.160
Stream size : 2.74 GiB (95%)
Encoded date : UTC 2014-07-28 23:58:20
Tagged date : UTC 2014-07-28 23:58:20
Audio
ID : 2
Format : AAC
Format/Info : Advanced Audio Codec
Format profile : LC
Codec ID : 40
Duration : 47mn 22s
Bit rate mode : Variable
Bit rate : 460 Kbps
Channel(s) : 2 channels
Channel(s)_Original : 6 channels
Channel positions : Front: L C R, Side: L R, LFE
Sampling rate : 48.0 KHz
Frame rate : 46.875 fps (1024 spf)
Compression mode : Lossy
Stream size : 156 MiB (5%)
Encoded date : UTC 2014-07-28 23:58:20
Tagged date : UTC 2014-07-28 23:58:20

Скриншоты



Вне форума [Профиль] [ЛС]
Показать сообщения:    
Ответить на тему

Текущее время: Сегодня 17:44

Часовой пояс: GMT + 3



Вы не можете начинать темы
Вы не можете отвечать на сообщения
Вы не можете редактировать свои сообщения
Вы не можете удалять свои сообщения
Вы не можете голосовать в опросах
Вы не можете прикреплять файлы к сообщениям
Вы не можете скачивать файлы