Сегодня идет свободное скачивание без начисления Download

Анатомия Грей / Анатомия страсти / Grey\'s Anatomy / Сезон: 9 / Серии: 1-24 из 24 (Роб Корн, Джефф Мелман, Майкл Гроссман) [2012, драма, мелодрама, WEB-DLRip] MVO (Fox Life)

Ответить на тему
 
Автор
Сообщение

Omen ®

Стаж: 5 лет 10 месяцев

Сообщений: 184329

Торрент-статистика

Пост 09-Фев-2016 15:00

[Цитировать]

---Анатомия Грей / Анатомия страсти / Grey's Anatomy
Год выпуска: 2012
Страна: США
Жанр: драма, мелодрама
Продолжительность: 00:43:33
Перевод: Профессиональный (многоголосый, закадровый) - Fox Life

Режиссёр: Роб Корн, Джефф Мелман, Майкл Гроссман
В ролях: Эллен Помпео, Сандра О, Джастин Чэмберс, Чандра Уилсон, Джеймс Пикенс мл., Патрик Дэмпси, Сара Рамирез, Эрик Дэйн, Джессика Кепшоу, Кевин МакКидд, Сара Дрю, Джесси Уильямс, Роберт Бейкер
Описание: В центре событий — молодая женщина-хирург Мередит Грей, дочь известного врача Эллис Грей. Она работает в городской больнице Сиэтла, и её коллеги, такие же начинающие врачи, как она. Хирурги оперируют и влюбляются, заводят истории болезни и служебные романы, хранят свои врачебные тайны, борются с осложнениями у пациентов и в собственной личной жизни. И зачастую отношения с противоположным полом волнуют их не меньше, чем вопрос приобретения ими профессионального опыта.
Сэмпл
Качество: WEB-DLRip
Формат: AVI
Видео: 704x400 (1.76:1), 23.976 fps, XviD build 73 ~1999 kbps avg, 0.30 bit/pixel
Аудио: 48 kHz, AC3 Dolby Digital, 2/0 (L,R) ch, ~192 kbps
Субтитры: отсутствуют

MediaInfo

Общее
Полное имя : F:\Торрент отдачи___сериалы\Grey's.Anatomy\Season_09\s09e01_Going.Going.Gone.avi
Формат : AVI
Формат/Информация : Audio Video Interleave
Размер файла : 680 Мбайт
Продолжительность : 43 м.
Общий поток : 2201 Кбит/сек
Программа кодирования : VirtualDubMod 1.5.10.3 | www.virtualdub-fr.org || (build 2550/release)
Библиотека кодирования : VirtualDubMod build 2550/release
Видео
Идентификатор : 0
Формат : MPEG-4 Visual
Профиль формата : Advanced Simple@L5
Параметр BVOP формата : 1
Параметр QPel формата : Нет
Параметр GMC формата : Без точки перехода
Параметр матрицы формата : Выборочная
Идентификатор кодека : XVID
Идентификатор кодека/Подсказка : XviD
Продолжительность : 43 м.
Битрейт : 2000 Кбит/сек
Ширина : 704 пикселя
Высота : 400 пикселей
Соотношение сторон : 16:9
Частота кадров : 23,976 кадра/сек
Цветовое пространство : YUV
Субдискретизация насыщенности : 4:2:0
Битовая глубина : 8 бит
Тип развёртки : Прогрессивная
Метод сжатия : С потерями
Бит/(Пиксели*Кадры) : 0.296
Размер потока : 618 Мбайт (91%)
Библиотека кодирования : XviD 73
Аудио
Идентификатор : 1
Формат : AC-3
Формат/Информация : Audio Coding 3
Расширение режима : CM (complete main)
Параметр Endianness формата : Big
Идентификатор кодека : 2000
Продолжительность : 43 м.
Вид битрейта : Постоянный
Битрейт : 192 Кбит/сек
Каналы : 2 канала
Расположение каналов : Front: L R
Частота : 48,0 КГц
Битовая глубина : 16 бит
Метод сжатия : С потерями
Размер потока : 59,3 Мбайт (9%)
Выравнивание : Разделение по промежуткам
Продолжительность промежутка : 42 мс. (1,00 видеокадр)
Время предзагрузки промежутка : 500 мс.
Вне форума [Профиль] [ЛС]
Похожие темы
Форум Тема Автор Торрент Отв. Посл. сообщение
./templates/default/images/folder_dl.gif Растровые клипарты Растровый клипарт - Анатомия тела человека / Human Body Anatomy [JPEG] UndegraundMen
1 | 0

2 | 13241

43

2017-01-20 12:29
XP1971 Последнее
./templates/default/images/folder_dl.gif Фантастика, фэнтези, ужасы, мистика Симмонс Дэн - Песни Гипериона 1-5, Цикл "Песни Гипериона" [Петр Маркин, Анатолий Петров, Станислав Войнич, @kris@to (ЛИ), 2008-2014 г., 64 kbps, MP3] Omen
1 | 0

0 | 1198

16

2014-02-16 11:00
Omen Последнее
./templates/default/images/folder_dl.gif Обучающее видео [The Gnomon Workshop] Анатомия короткометражки - часть 1 [2010, RUS] Omen
1 | 0

0 | 173

1

2015-10-05 18:51
Omen Последнее
./templates/default/images/folder_dl.gif Справочники, энциклопедии и словари Анатолий Верчинский | Учим английские слова из пяти букв. Словарь-самоучитель английского языка (2018) [PDF] XP1971
1 | 0

0 | 526

5

2018-07-07 01:14
XP1971 Последнее
Показать сообщения:    
Ответить на тему

Текущее время: Сегодня 23:25

Часовой пояс: GMT + 3



Вы не можете начинать темы
Вы не можете отвечать на сообщения
Вы не можете редактировать свои сообщения
Вы не можете удалять свои сообщения
Вы не можете голосовать в опросах
Вы не можете прикреплять файлы к сообщениям
Вы не можете скачивать файлы