Сегодня идет свободное скачивание без начисления Download

Бездельницы / Drifters / Сезон: 3 / Серии: 1-6 из 6 (Саймон Делани) [2015, комедия, HDTVRip 720p] DVO (HamsterStudio)

Ответить на тему
 
Автор
Сообщение

Omen ®

Стаж: 5 лет 6 месяцев

Сообщений: 186946

Торрент-статистика

Пост 08-Фев-2016 21:00

[Цитировать]

Бездельницы / Drifters
Год выпуска: 2015
Страна: Великобритания
Жанр: комедия
Продолжительность: 00:25:00
Перевод: Любительский (двухголосый закадровый) HamsterStudio
Режиссёр: Саймон Делани
В ролях: Лидия Роуз Бьюли, Джессика Нэппет, Лорен О’Рурк, Боб Мортимер, Арабелла Веир и др.
Описание: Сериал рассказывает о жизни и приключениях подруг, живущих в Лидсе. Они изо всех пытаются найти работу, но ничего не получается. Здесь показаны очень смешные и унизительные приключения Мэг, её кузины Банни и их подруги Лауры. Они обнаруживают, что жизнь намного сложнее, чем они могли себе представить.
Доп. информация:
Озвучка: Андрей Жариков и Анастасия Снегирёва
Перевод: Антон Кедров
Монтаж и сведение звука: Иван Козлов
Ссылка на предыдущие и альтернативные раздачи:
Сэмпл: http://multi-up.com
Качество: HDTVRip 720p
Контейнер: MKV
Видео: MPEG4 Video (H264) 1280x720 25fps 3 106 Kbps
Аудио: Dolby AC3 48000Hz stereo 384 Kbps
Субтитры: отсутствуют

MediaInfo

General
Unique ID : 253962749582461450093912913744536701971 (0xBF0F724872D7A2BAA7AC1E6F7F428C13)
Complete name : D:\TORRENTS\Бездельницы 3\Drifters.s03e01.720p.HDTV.HamsterStudio.mkv
Format : Matroska
Format version : Version 4 / Version 2
File size : 590 MiB
Duration : 23mn 37s
Overall bit rate : 3 492 Kbps
Encoded date : UTC 2016-02-06 09:56:13
Writing application : mkvmerge v8.6.1 ('Flying') 32bit
Writing library : libebml v1.3.3 + libmatroska v1.4.4
Video
ID : 1
Format : AVC
Format/Info : Advanced Video Codec
Format profile : High@L4.1
Format settings, CABAC : Yes
Format settings, ReFrames : 5 frames
Codec ID : V_MPEG4/ISO/AVC
Duration : 23mn 36s
Bit rate : 3 106 Kbps
Width : 1 280 pixels
Height : 720 pixels
Display aspect ratio : 16:9
Frame rate mode : Constant
Frame rate : 25.000 fps
Color space : YUV
Chroma subsampling : 4:2:0
Bit depth : 8 bits
Scan type : Progressive
Bits/(Pixel*Frame) : 0.135
Stream size : 525 MiB (89%)
Writing library : x264 core 148 r2638 7599210
Encoding settings : cabac=1 / ref=5 / deblock=1:0:0 / analyse=0x3:0x113 / me=umh / subme=8 / psy=1 / psy_rd=1.00:0.00 / mixed_ref=1 / me_range=16 / chroma_me=1 / trellis=1 / 8x8dct=1 / cqm=0 / deadzone=21,11 / fast_pskip=1 / chroma_qp_offset=-2 / threads=12 / lookahead_threads=2 / sliced_threads=0 / nr=0 / decimate=1 / interlaced=0 / bluray_compat=0 / constrained_intra=0 / bframes=3 / b_pyramid=2 / b_adapt=2 / b_bias=0 / direct=3 / weightb=1 / open_gop=0 / weightp=2 / keyint=250 / keyint_min=25 / scenecut=40 / intra_refresh=0 / rc_lookahead=50 / rc=crf / mbtree=1 / crf=18.0 / qcomp=0.60 / qpmin=0 / qpmax=69 / qpstep=4 / ip_ratio=1.40 / aq=1:1.00
Default : Yes
Forced : No
Color range : Limited
Matrix coefficients : BT.709
Audio
ID : 2
Format : AC-3
Format/Info : Audio Coding 3
Mode extension : CM (complete main)
Format settings, Endianness : Big
Codec ID : A_AC3
Duration : 23mn 37s
Bit rate mode : Constant
Bit rate : 384 Kbps
Channel(s) : 2 channels
Channel positions : Front: L R
Sampling rate : 48.0 KHz
Frame rate : 31.250 fps (1536 spf)
Compression mode : Lossy
Delay relative to video : 16ms
Stream size : 64.9 MiB (11%)
Language : Russian
Default : Yes
Forced : Yes

Скриншоты

Вне форума [Профиль] [ЛС]
Показать сообщения:    
Ответить на тему

Текущее время: Сегодня 17:23

Часовой пояс: GMT + 3



Вы не можете начинать темы
Вы не можете отвечать на сообщения
Вы не можете редактировать свои сообщения
Вы не можете удалять свои сообщения
Вы не можете голосовать в опросах
Вы не можете прикреплять файлы к сообщениям
Вы не можете скачивать файлы