Сегодня идет свободное скачивание без начисления Download

Возвращение в Оксфорд / Встреча выпускников / Gaudy Night , мини-сериал. Части 1 из 3. ( Майкл Симпсон )[1987, классический детектив, DVDRip.] Original (English) + Rus Subs

Ответить на тему
 
Автор
Сообщение

Omen ®

Стаж: 5 лет 6 месяцев

Сообщений: 186946

Торрент-статистика

Пост 08-Фев-2016 12:00

[Цитировать]

Возвращение в Оксфорд / Встреча выпускников / Gaudy NightВосьмой фильм из цикла Lord Peter Wimsey / Лорд Питер Уимзи (1987) Год выпуска: 1987
Страна: Великобритания
Жанр: Классический детектив
Продолжительность: 3x51 мин
Перевод: Русские субтитры. Авторы перевода: Okline, marina77eliseeva
режиссер Майкл Симпсон
сценарий Дороти Л. Сэйерс, Филип Броадли
продюсер Майкл Чэпман , Ребекка Итон
Премьера (мир) 13 мая 1987
В главных ролях:
Харриет Уолтер
Эдвард Петербридж
Ричард Морант
Шейла Баррелл
Кэрол Макреди
Дилис Hamlett
Кэролайн Джон Берроуз
Merelina Кендалл
Чармиан Мэй
Ориоль Смит
Шарлотт Уэст-Орам
Описание:
Гарриет Вэйн приезжает в Оксфорд на встречу выпускников. Вопреки опасениям родной колледж не склонен осуждать ее за скандальную репутацию. Однако вскоре оказывается, что скандал грозит самому колледжу: неизвестный злоумышленник пишет грязные анонимки, преследует студентов и преподавателей. Гарриет спешит на помощь, но расследование продвигается не слишком успешно. Смирив свою гордость, она обращается к Питеру Уимзи. Вместе они не только разгадывают загадку, но и начинают лучше понимать друг друга, хотя для этого им и приходится перейти на латынь.
Доп. информация: Мини-сериал создан по мотивам романа Дороти Ли Сэйерс Gaudy Night , который входит в цикл "Лорд Питер Уимзи". Это третий из четырёх романов, где развивается любовная линия Уимзи - Харриет Вейн.
Огромная благодарность за консультации при переводе субтитров истинному почитателю творчества Дороти Сэйерс, англоману и просто хорошему человеку под ником storge187

Раздачи фильмов Цикла Лорд Питер Уимзи

Автором литературной основы фильма является известная английская писательница, одна из основателей британского Детективного клуба, членом которого была Агата Кристи, а председателем - Гилберт Честертон. "Gaudy Night", - роман Дороти Ли Сэйерс о расследованиях лорда Питера Уимзи, ставшего героем ее 15 романов и двух десятков рассказов.
Роль лорда Уимзи, аристократа, эрудита и интеллектуала, виртуозно расследующего запутанные преступления и способного разрушить замыслы самого жестокого злодея, сыграл популярный английский актер, Эдвард Петербридж.
Сэмпл: http://multi-up.com/1088207
Качество: DVDRip
Формат: AVI
Видео: mp43 Visual at 913 Кбит/сек 720 x 480
Аудио: MPEG Audio at 128 Кбит/сек 2 канала, 48.0 КГц

MI

General
Complete name : G:\ дідо\ Передроздача\Gaudy Nigh 3\Gaudy Night E3.avi
Format : AVI
Format/Info : Audio Video Interleave
File size : 331 MiB
Duration : 50mn 45s
Overall bit rate : 913 Kbps
Video
ID : 0
Format : mp43
Codec ID : mp43
Duration : 50mn 45s
Bit rate : 768 Kbps
Width : 720 pixels
Height : 480 pixels
Display aspect ratio : 3:2
Frame rate : 25.000 fps
Standard : NTSC
Bits/(Pixel*Frame) : 0.089
Stream size : 279 MiB (84%)
Audio
ID : 1
Format : MPEG Audio
Codec ID : 55
Codec ID/Hint : MP3
Duration : 50mn 45s
Bit rate : 128 Kbps
Channel(s) : 2 channels
Sampling rate : 48.0 KHz
Compression mode : Lossy
Stream size : 46.5 MiB (14%)
Alignment : Aligned on interleaves
Interleave, duration : 24 ms (0.60 video frame)

Образец субтитров

198
00:11:18,162 --> 00:11:19,563
Харриет Вейн?
199
00:11:19,727 --> 00:11:21,929
Вы не одобряете?
Конечно, нет.
200
00:11:22,042 --> 00:11:23,543
Помимо своей частной жизни,
201
00:11:23,606 --> 00:11:25,508
о которой я предпочту промолчать,
202
00:11:25,575 --> 00:11:27,477
она пишет эти дешёвые романы.
203
00:11:27,718 --> 00:11:30,120
Должна сказать, что недостаточно
знаю её творчество,
204
00:11:30,258 --> 00:11:31,659
чтобы сформировать своё мнение.
205
00:11:31,767 --> 00:11:34,269
Я рада, мисс Барроуз, что вы
чувствуете себя вправе
206
00:11:34,293 --> 00:11:36,095
выносить последовательные суждения.
207
00:11:36,178 --> 00:11:37,880
Меня не беспокоит, если эта Вейн жила
208
00:11:37,913 --> 00:11:40,015
даже с самим султаном Багдада,
если вы об этом.
209
00:11:40,128 --> 00:11:42,430
Но имя колледжа - это как раз то,
что меня волнует.
210
00:11:42,505 --> 00:11:44,507
Что волнует меня, так это её квалификация
211
00:11:44,608 --> 00:11:46,709
для такой работы, если таковая есть.
212
00:11:47,298 --> 00:11:49,701
Какие из её книг вы
читали, мисс Барроуз?
213
00:11:49,784 --> 00:11:50,985
Я не читаю всякой чепухи.
214
00:11:51,042 --> 00:11:53,645
Должна заметить, это
очень научный подход.
215
00:11:53,694 --> 00:11:55,696
Вы порицаете её книги
даже не прочитав,
216
00:11:55,789 --> 00:11:57,591
и её мораль, не зная о ней ничего.
217
00:11:58,994 --> 00:12:00,495
По её признанию,
218
00:12:00,582 --> 00:12:02,784
она сознательно вела себя неподобающе.

Скриншоты

Внимание, раздача ведется путем добавления новых серий

Раздача ведётся путём добавления новых серий; при каждом добавлении создаётся новый торрент. Чтобы начать докачку новой серии, пользователям необходимо сделать следующее:
(1) остановить скачивание,
(2) удалить старый торрент у себя из клиента (старые серии удалять не надо),
(3) скачать новый торрент и запустить его у себя в клиенте вместо старого, при этом указать клиенту путь в старую папку куда и должно происходить скачивание новых серий.
Ваш клиент при этом должен произвести хеширование (проверку) старой папки (если не производит сам – помогите ему сделать это), и будет докачивать только те серии которых у вас ещё нет. Старые серии при этом не удаляются, а продолжают раздаваться!
Eсли вы уже удалили старые серии, то предотвратить повторную закачку старых серий можно, отжав галочку в соответствующих местах при запуске нового торрента. По возможности, желательно не удалять старые серии как можно дольше чтобы релизёр не столько продолжал раздавать старые серии, а смог сконцентрироваться на новых.
Вне форума [Профиль] [ЛС]
Похожие темы
Форум Тема Автор Торрент Отв. Посл. сообщение
./templates/default/images/folder_dl.gif Обучающее видео [Lynda.com / Jill Griffin] Возвращаем бывших клиентов / Winning Back a Lost Customer [2016, бизнес, HDRip, ENG] (Видеоурок) Omen
1 | 0

0 | 805

5

2016-03-26 12:00
Omen Последнее
Показать сообщения:    
Ответить на тему

Текущее время: Сегодня 04:14

Часовой пояс: GMT + 3



Вы не можете начинать темы
Вы не можете отвечать на сообщения
Вы не можете редактировать свои сообщения
Вы не можете удалять свои сообщения
Вы не можете голосовать в опросах
Вы не можете прикреплять файлы к сообщениям
Вы не можете скачивать файлы