Сегодня идет свободное скачивание без начисления Download

Парень встречает девушку / Boy Meets Girl / Сезон: 1 / Серии: 1-2 из 6 (Пол Уолкер / Paul Walker) [2015, комедия, HDTV 720p] MVO (NikiStudio Records) + Original

Ответить на тему
 
Автор
Сообщение

Omen ®

Стаж: 5 лет 9 месяцев

Сообщений: 184393

Торрент-статистика

Пост 08-Фев-2016 09:33

[Цитировать]

--Парень встречает девушку / Boy Meets Girl-- Год выпуска: 2015
Страна: Великобритания
Жанр: комедия
Продолжительность: 00:28:00-Перевод: Любительский (многоголосый закадровый) NikiStudio Records-Режиссёр: Пол Уолкер / Paul Walker-В ролях: Найджел Беттс, Джонни Диксон, Джанин Дувицкий, Гарри Хэппл, Грэхэм Рут, Лиззи Роупер, Денис Уэлш, Винита Риши, Стив Джексон, Рэйчел Тит ...-Описание: Она родилась в чужом теле. Он никогда не встречал девушки своей мечты. Они стали странной парой, но полюбили друг друга с первого взгляда.-Доп. информация:
Перевод: Дарья Толчевская и Дарья Жмура
Роли озвучивали: Глеб Петров, Анна Мачугина, Галина Поцелуева, Василий Чупров и Вячеслав Пасманик
Звукорежиссёр: Мария Артемова
- -Ссылка на предыдущие и альтернативные раздачи[/url]-Качество: HDTV 720p
Контейнер: MKV
Видео: H.264, 1280x720 (16:9), 25,000 fps, ~2152 kbps, 0.093 bit/pixel
Аудио # 1: AC3, 48 kHz, 2 ch, 192 kbps, CBR - NikiStudio Records
Аудио # 2: AC3, 48 kHz, 2 ch, 192 kbps, CBR - оригинал
Субтитры: отсутствуют

MediaInfo

Общее
Уникальный идентификатор : 242700335092624086174410212550426112575 (0xB69662609E25DECB9E6427D64646323F)
Полное имя : F:\Films\Boy Meets Girl 2015.S01\Boy.Meets.Girll.2015.S01E01.720p.HDTV.AC3.H.264-[NiKiStudio_Records].mkv
Формат : Matroska
Версия формата : Version 2
Размер файла : 527 Мбайт
Продолжительность : 28 м.
Общий поток : 2588 Кбит/сек
Дата кодирования : UTC 2015-11-07 18:56:29
Программа кодирования : mkvmerge v4.4.0 ('Die Wiederkehr') сборка от Oct 31 2010 21:52:48
Библиотека кодирования : libebml v1.0.0 + libmatroska v1.0.0
Attachements : small_cover_land.jpg / cover.jpg / cover_land.jpg / small_cover.jpg
Видео
Идентификатор : 1
Формат : AVC
Формат/Информация : Advanced Video Codec
Профиль формата : High@L4.1
Параметр CABAC формата : Да
Параметр ReFrames формата : 5 кадров
Идентификатор кодека : V_MPEG4/ISO/AVC
Продолжительность : 28 м.
Битрейт : 2152 Кбит/сек
Ширина : 1280 пикселей
Высота : 720 пикселей
Соотношение сторон : 16:9
Режим частоты кадров : Постоянный
Частота кадров : 25,000 кадров/сек
Цветовое пространство : YUV
Субдискретизация насыщенности : 4:2:0
Битовая глубина : 8 бит
Тип развёртки : Прогрессивная
Бит/(Пиксели*Кадры) : 0.093
Размер потока : 438 Мбайт (83%)
Библиотека кодирования : x264 core 148 r2597 e86f3a1
Настройки программы : cabac=1 / ref=5 / deblock=1:0:0 / analyse=0x3:0x113 / me=umh / subme=8 / psy=1 / psy_rd=1.00:0.00 / mixed_ref=1 / me_range=16 / chroma_me=1 / trellis=1 / 8x8dct=1 / cqm=0 / deadzone=21,11 / fast_pskip=1 / chroma_qp_offset=-2 / threads=12 / lookahead_threads=2 / sliced_threads=0 / nr=0 / decimate=1 / interlaced=0 / bluray_compat=0 / constrained_intra=0 / bframes=3 / b_pyramid=2 / b_adapt=2 / b_bias=0 / direct=3 / weightb=1 / open_gop=0 / weightp=2 / keyint=250 / keyint_min=25 / scenecut=40 / intra_refresh=0 / rc_lookahead=50 / rc=crf / mbtree=1 / crf=18.0 / qcomp=0.60 / qpmin=0 / qpmax=69 / qpstep=4 / ip_ratio=1.40 / aq=1:1.00
Default : Да
Forced : Нет
colour_range : Limited
Коэффициенты матрицы : BT.709
Аудио #1
Идентификатор : 2
Формат : AC-3
Формат/Информация : Audio Coding 3
Расширение режима : CM (complete main)
Параметр Endianness формата : Big
Идентификатор кодека : A_AC3
Продолжительность : 28 м.
Вид битрейта : Постоянный
Битрейт : 192 Кбит/сек
Каналы : 2 канала
Расположение каналов : Front: L R
Частота : 48,0 КГц
Метод сжатия : С потерями
Размер потока : 39,1 Мбайт (7%)
Заголовок : NiKiStudio_Records
Язык : Russian
Default : Да
Forced : Нет
Аудио #2
Идентификатор : 3
Формат : AC-3
Формат/Информация : Audio Coding 3
Расширение режима : CM (complete main)
Параметр Endianness формата : Big
Идентификатор кодека : A_AC3
Продолжительность : 28 м.
Вид битрейта : Постоянный
Битрейт : 192 Кбит/сек
Каналы : 2 канала
Расположение каналов : Front: L R
Частота : 48,0 КГц
Метод сжатия : С потерями
Размер потока : 39,1 Мбайт (7%)
Язык : English
Default : Нет
Forced : Нет

Скриншоты


Внимание! Раздача ведётся путём добавления новых серий.


Внимание! Раздача ведётся путём добавления новых серий; при каждом добавлении создётся новый торрент. Чтобы начать докачку новой серии, пользователям необходимо сделать следующее:
Остановить скачивание.
Удалить старый торрент у себя из клиента (старые серии удалять не надо).
Скачать новый торрент и запустить его у себя в клиенте вместо старого, при этом указать клиенту путь в старую папку куда и должно происходить скачивание новых серий.
Ваш клиент при этом должен произвести хеширование (проверку) старой папки (если не производит сам - помогите ему сделать это), и будет докачивать только те серии которых у вас ещё нет. Старые серии при этом не удаляются, а продолжают раздаваться!
Eсли вы уже удалили старые серии, то предотвратить повторную закачку старых серий можно, отжав галочку в соответсвующих местах при запуске нового торрента. По возможности, желательно не удалять старые серии как можно дольше чтобы релизёр не столько продолжал раздавать старые серии, а смог сконцентрироваться на новых.
Раздача обновлена. Добавлена 2-я серия. Приятного просмотра!
Вне форума [Профиль] [ЛС]
Показать сообщения:    
Ответить на тему

Текущее время: Сегодня 15:07

Часовой пояс: GMT + 3



Вы не можете начинать темы
Вы не можете отвечать на сообщения
Вы не можете редактировать свои сообщения
Вы не можете удалять свои сообщения
Вы не можете голосовать в опросах
Вы не можете прикреплять файлы к сообщениям
Вы не можете скачивать файлы