Сегодня идет свободное скачивание без начисления Download

Юная / Молодая / Younger / Сезон: 2 / Серии: 1-5 из 12 (Даррен Стар) [2016, комедия, WEB-DL 720p] Original + Sub Rus (Notabenoid) + Sub Eng

Ответить на тему
 
Автор
Сообщение

Omen ®

Стаж: 5 лет 9 месяцев

Сообщений: 184433

Торрент-статистика

Пост 07-Фев-2016 03:33

[Цитировать]

Юная / Younger Год выпуска: 2016
Страна: США
Жанр: комедия
Продолжительность: ~ 00:22:00
Перевод: Субтитры-Режиссёр: Даррен Стар-В ролях: Саттон Фостер, Мириам Шор, Деби Мейзар, Хилари Дафф, Нико Торторелла и др.-Описание: 40-летняя разведёнка и мать-одиночка Лиза пытается найти работу. Однако выясняется, что для женщины её возраста это не так-то просто. Тогда она просто слегка подправляет свой имидж и выдает себя за 26-летнюю.-Качество: WEB-DL 720p
Формат: MKV
Видео кодек: H.264
Аудио кодек: AAC
Видео: 1280x718 (16:9), 23.976 fps, ~4000 kbps avg, ~0.183 bit/pixel
Аудио: 48 kHz, AAC, 2 ch, ~160.00 kbps avg Original
Субтитры: Русские, Английские-Перевод: Me_n_Music, alekartem (специально для группы вконтакте @amazinghilary)-Сэмпл / TVRAGE / TV.com / IMDB / КиноПоиск-

MediaInfo

Код:
General
Unique ID                   : 247876054894167638335496457791638646891 (0xBA7B3110BE2980278ADD9FBBC234B06B)
Complete name               : G:\000\Younger.S02.WEB-DL.720p.Eng.Rus.Sub-alekartem\Younger.S02E05.WEB-DL.720p.Eng.Rus.Sub-alekartem.mkv
Format                      : Matroska
Format version              : Version 4 / Version 2
File size                   : 649 MiB
Duration                    : 21mn 42s
Overall bit rate            : 4 181 Kbps
Encoded date                : UTC 2016-02-06 23:28:59
Writing application         : mkvmerge v8.8.0 ('Wind at my back') 32bit
Writing library             : libebml v1.3.3 + libmatroska v1.4.4
Cover                       : Yes
Attachments                 : cover.jpg
Video
ID                          : 1
Format                      : AVC
Format/Info                 : Advanced Video Codec
Format profile              : High@L3.1
Format settings, CABAC      : No
Format settings, ReFrames   : 2 frames
Codec ID                    : V_MPEG4/ISO/AVC
Duration                    : 21mn 42s
Bit rate                    : 4 023 Kbps
Width                       : 1 280 pixels
Height                      : 718 pixels
Display aspect ratio        : 16:9
Frame rate mode             : Constant
Frame rate                  : 23.976 (24000/1001) fps
Color space                 : YUV
Chroma subsampling          : 4:2:0
Bit depth                   : 8 bits
Scan type                   : Progressive
Bits/(Pixel*Frame)          : 0.183
Stream size                 : 625 MiB (96%)
Language                    : English
Default                     : Yes
Forced                      : No
Color range                 : Limited
Color primaries             : BT.709
Transfer characteristics    : BT.709
Matrix coefficients         : BT.709
Audio
ID                          : 2
Format                      : AAC
Format/Info                 : Advanced Audio Codec
Format profile              : LC
Codec ID                    : A_AAC
Duration                    : 21mn 42s
Bit rate                    : 154 Kbps
Channel(s)                  : 2 channels
Channel positions           : Front: L R
Sampling rate               : 48.0 KHz
Frame rate                  : 46.875 fps (1024 spf)
Compression mode            : Lossy
Stream size                 : 23.8 MiB (4%)
Title                       : Original
Language                    : English
Default                     : Yes
Forced                      : No
Text #1
ID                          : 3
Format                      : UTF-8
Codec ID                    : S_TEXT/UTF8
Codec ID/Info               : UTF-8 Plain Text
Duration                    : 20mn 46s
Bit rate                    : 174 bps
Count of elements           : 504
Stream size                 : 26.6 KiB (0%)
Title                       : Me_n_Music
Language                    : Russian
Default                     : Yes
Forced                      : No
Text #2
ID                          : 4
Format                      : UTF-8
Codec ID                    : S_TEXT/UTF8
Codec ID/Info               : UTF-8 Plain Text
Duration                    : 21mn 0s
Bit rate                    : 103 bps
Count of elements           : 558
Stream size                 : 16.0 KiB (0%)
Language                    : English
Default                     : No
Forced                      : No

Скриншоты

Внимание! Раздача ведется путем добавления новых серий

Внимание! Раздача ведётся путём добавления новых серий; при каждом добавлении создаётся новый торрент. Чтобы начать докачку новой серии, пользователям необходимо сделать следующее:
(1) остановить скачивание,
(2) удалить старый торрент-файл у себя из клиента (старые серии удалять не надо),
(3) скачать новый торрент-файл из раздачи и запустить его у себя в клиенте вместо старого, при этом указать клиенту путь в старую папку, куда и должно происходить скачивание новых серий.
Ваш клиент при этом должен произвести хеширование (проверку) старой папки (если не производит сам - помогите ему сделать это), и будет докачивать только те серии, которых у Вас ещё нет. Старые серии при этом не удаляются, а продолжают раздаваться!
Eсли Вы уже посмотрели и удалили старые серии, то предотвратить повторную закачку старых серий можно, сняв галочки в соответсвующих местах при запуске нового торрента. По возможности, желательно не удалять старые серии как можно дольше чтобы релизёр не столько продолжал раздавать старые серии, сколько сконцентрироваться на новых.
Вне форума [Профиль] [ЛС]
Показать сообщения:    
Ответить на тему

Текущее время: Сегодня 17:31

Часовой пояс: GMT + 3



Вы не можете начинать темы
Вы не можете отвечать на сообщения
Вы не можете редактировать свои сообщения
Вы не можете удалять свои сообщения
Вы не можете голосовать в опросах
Вы не можете прикреплять файлы к сообщениям
Вы не можете скачивать файлы