Сегодня идет свободное скачивание без начисления Download

Легенды завтрашнего дня / DC\'s Legends of Tomorrow / Сезон: 1 / Серии: 1-3 из 16 (Дермотт Даунс, Глен Винтер, Джо Данте) [2016, фантастика, боевик, WEB-DLRip] MVO (LostFilm) + Original

Ответить на тему
 
Автор
Сообщение

Omen ®

Стаж: 5 лет 6 месяцев

Сообщений: 186946

Торрент-статистика

Пост 07-Фев-2016 03:00

[Цитировать]

-Легенды завтрашнего дня | DC's Legends of Tomorrow-- • Год выпуска: 2015
• Страна: США
• Жанр: фантастика, боевик
• Продолжительность: ~ 00:43:00-• Перевод: Профессиональный (многоголосый закадровый) | LostFilm-• Режиссёр: Дермотт Даунс, Глен Винтер, Джо Данте-• В ролях: Виктор Гарбер, Брэндон Рут, Кейти Лотц, Артур Дарвилл, Сиара Рене, Франц Драмех, Доминик Пёрселл, Вентворт Миллер, Каспер Крамп, Фальк Хеншел и др.-• Описание: Увидев будущее, которого обязательно нужно избежать, Рип Хантер, путешественник во времени, собирает команду из героев и злодеев, чтобы противостоять смертельной угрозе. На кону стоит не только наша планета, но и все время в целом. Сможет ли эта команда победить бессмертное зло, абсолютно непохожее на то, что они видели раньше?- --• Качество: WEB-DLRip
• Формат: AVI
• Видео: XviD, 720x400 (16:9), 23,976 fps, ~1303 kbps
• Аудио #1: MP3, 48 kHz, 2 ch, 128 kbps, CBR - Rus
• Аудио #2: MP3, 48 kHz, 2 ch, 128 kbps, CBR - Eng
• Субтитры: отсутствуют-

✘ Релиз ✘

рип qqss44
перевод и озвучание LostFilm
чистый рип, без заставки и логотипа

✘ MediaInfo ✘

Код:
Общее
Полное имя                               : X:\ATorrent\Legends of Tomorrow (S01) LostFilm\Legends.of.Tomorrow.[S01E01].XviD.LostFilm.[qqss44].avi
Формат                                   : AVI
Формат/Информация                        : Audio Video Interleave
Размер файла                             : 500 Мбайт
Продолжительность                        : 44 м.
Общий поток                              : 1573 Кбит/сек
Программа кодирования                    : VirtualDubMod 1.5.10.3 | www.virtualdub-fr.org || (build 2550/release)
Библиотека кодирования                   : VirtualDubMod build 2550/release
Видео
Идентификатор                            : 0
Формат                                   : MPEG-4 Visual
Профиль формата                          : Advanced Simple@L5
Параметр BVOP формата                    : 2
Параметр QPel формата                    : Нет
Параметр GMC формата                     : Без точки перехода
Параметр матрицы формата                 : Default (MPEG)
Идентификатор кодека                     : XVID
Идентификатор кодека/Подсказка           : XviD
Продолжительность                        : 44 м.
Битрейт                                  : 1303 Кбит/сек
Ширина                                   : 720 пикселей
Высота                                   : 400 пикселей
Соотношение сторон                       : 16:9
Частота кадров                           : 23,976 кадра/сек
Цветовое пространство                    : YUV
Субдискретизация насыщенности            : 4:2:0
Битовая глубина                          : 8 бит
Тип развёртки                            : Прогрессивная
Метод сжатия                             : С потерями
Бит/(Пиксели*Кадры)                      : 0.189
Размер потока                            : 415 Мбайт (83%)
Библиотека кодирования                   : XviD 73
Аудио #1
Идентификатор                            : 1
Формат                                   : MPEG Audio
Версия формата                           : Version 1
Профиль формата                          : Layer 3
Режим                                    : Joint stereo
Расширение режима                        : MS Stereo
Идентификатор кодека                     : 55
Идентификатор кодека/Подсказка           : MP3
Продолжительность                        : 44 м.
Вид битрейта                             : Постоянный
Битрейт                                  : 128 Кбит/сек
Каналы                                   : 2 канала
Частота                                  : 48,0 КГц
Метод сжатия                             : С потерями
Размер потока                            : 40,7 Мбайт (8%)
Выравнивание                             : Соединение по промежуткам
Продолжительность промежутка             : 42  мс. (1,00 видеокадр)
Время предзагрузки промежутка            : 504  мс.
Аудио #2
Идентификатор                            : 2
Формат                                   : MPEG Audio
Версия формата                           : Version 1
Профиль формата                          : Layer 3
Режим                                    : Joint stereo
Расширение режима                        : MS Stereo
Идентификатор кодека                     : 55
Идентификатор кодека/Подсказка           : MP3
Продолжительность                        : 44 м.
Вид битрейта                             : Постоянный
Битрейт                                  : 128 Кбит/сек
Каналы                                   : 2 канала
Частота                                  : 48,0 КГц
Метод сжатия                             : С потерями
Размер потока                            : 40,7 Мбайт (8%)
Выравнивание                             : Соединение по промежуткам
Продолжительность промежутка             : 42  мс. (1,00 видеокадр)
Время предзагрузки промежутка            : 504  мс.

✘ Скриншоты ✘

✘ Раздача ведется путем добавления новых серий ✘

Когда раздача ведётся путём добавления новых серий, при каждом добавлении создётся новый торрент. Чтобы начать докачку новой серии, пользователям необходимо сделать следующее:
(1) остановить скачивание,
(2) удалить старый торрент у себя из клиента (старые серии удалять не надо),
(3) скачать новый торрент и запустить его у себя в клиенте вместо старого, при этом указать клиенту путь в старую папку, куда и должно происходить скачивание новых серий.
Ваш клиент при этом должен произвести хеширование (проверку) старой папки (если не производит сам - помогите ему сделать это), и будет докачивать только те серии, которых у вас ещё нет. Старые серии при этом не удаляются, а продолжают раздаваться!
Eсли вы уже удалили старые серии, то предотвратить повторную закачку старых серий можно, отжав галочку в соответсвующих местах при запуске нового торрента. По возможности, желательно не удалять старые серии как можно дольше, чтобы релизёр не столько продолжал раздавать старые серии, а смог сконцентрироваться на новых.
-
Вне форума [Профиль] [ЛС]
Похожие темы
Форум Тема Автор Торрент Отв. Посл. сообщение
./templates/default/images/folder_dl.gif Зарубежное кино Легенда / Legend (Брайан Хелгеленд / Brian Helgeland) [2015, Великобритания, Франция, криминал, триллер, драма, BDRip 1080p] Dub (iTunes) + Sub Eng + Original Eng Omen
1 | 0

0 | 193

2

2016-01-18 21:04
Omen Последнее
./templates/default/images/folder_dl.gif Фильмы Кому всунешь, ту и чпокнешь (Сергей Логинов / Кинокомпания «Клубничка») [2010 г., Feature, Anal Sex, Russian Girls, DVDRip] (Оля Захарова, Таня Легенда, Злата Козак, Тася Кошечкина, Лида Хорошева, Злата Пинки, Лена Нимфа, Гуля Мамедова, Е. Скворцова) XP1971
1 | 0

0 | 6814

84

2017-04-01 20:24
XP1971 Последнее
./templates/default/images/folder_dl.gif Новинки (BD|HDTV|DVD) Легенда о Коловрате (Джаник Файзиев, Иван Шурховецкий) [2017 г., история, боевик, фэнтези, WEB-DL 1080p] iTunes Theseus
1 | 0

0 | 1396

6

2018-01-31 02:23
Theseus Последнее
Показать сообщения:    
Ответить на тему

Текущее время: Сегодня 00:30

Часовой пояс: GMT + 3



Вы не можете начинать темы
Вы не можете отвечать на сообщения
Вы не можете редактировать свои сообщения
Вы не можете удалять свои сообщения
Вы не можете голосовать в опросах
Вы не можете прикреплять файлы к сообщениям
Вы не можете скачивать файлы