Сегодня идет свободное скачивание без начисления Download

Пожарные Чикаго / Чикаго в огне / Chicago Fire / Сезон: 4 / Серии: 1-13 из 23 (Джо Чаппелль, Жан Де Сегонзак, Майкл Словис) [2015, Драма, WEB-DL 1080p] VO (Денис Шадинский) + Original (Eng)

Ответить на тему
 
Автор
Сообщение

Omen ®

Стаж: 5 лет 6 месяцев

Сообщений: 186946

Торрент-статистика

Пост 06-Фев-2016 03:00

[Цитировать]

--Пожарные Чикаго / Чикаго в огне / Chicago Fire-- Год выпуска: 2015
Страна: США
Жанр: Драма
Продолжительность: ~ 00:43:00--Перевод: Профессиональный (одноголосый) [Денис Шадинский]--Режиссёр: Джо Чаппелль, Жан Де Сегонзак, Майкл Словис--В ролях: Тейлор Кинни, Джесси Спенсер, Моника Рэйманд, Лорен Джерман, Чарли Барнетт, Юрий Сардаров, Имонн Уолкер, Кристиан Столте, Рэнди Флаглер, Энн Локхарт--Описание: Firehouse 51 — это слаженная команда чикагских пожарных, спасателей и парамедиков, которые ежедневно и еженощно спасают жизни людей попавших в плен огненной стихии. Лейтенант Мэтью Кейси — прирожденный лидер и настоящий пожарный. После разрыва с любимой женщиной он во многом пересмотрел свои взгляды на многие вещи. А после гибели друга и коллеги Эндрю Дардена, Кейси теперь постоянно находится в конфронтации с другим членом команды — спасателем, лейтенантом Келли Северайдом. Они не могут смириться с потерей друга и поэтому обвиняют друг друга в смерти Дардена. Также в команду входят новичок Питер Миллс, чей отец также был пожарным, два парамедика: Габриэла Доусон и Лесли Шей и шеф - Уоллес Боден. Находясь на переднем рубеже жизни и смерти, им приходится принимать не простые решения, они постоянно рискуют своими жизнями, надеясь лишь на поддержку коллег и друзей, что бы ни случилось...----Качество: WEB-DL 1080p--Контейнер: MKV
Видео: 1920x1080 (1.77:1), 23.976 fps, AVC (х264), High@L4, ~4888 kbps avg, 0.098 bit/pixel
Аудио 1: 48 kHz, AC3 Dolby Digital, 3/2 (L,C,R,l,r) + LFE ch, ~384 kbps avg - Rus
Аудио 2: 48 kHz, AC3 Dolby Digital, 3/2 (L,C,R,l,r) + LFE ch, ~384 kbps avg - Eng
Субтитры: отсутствуют
-

Внимание! Раздача ведётся путём добавления новых серий

Внимание! Раздача ведётся путём добавления новых серий; при каждом добавлении создаётся новый торрент. Чтобы начать докачку новой серии, пользователям необходимо сделать следующее:
(1) остановить скачивание,
(2) удалить старый торрент у себя из клиента (старые серии удалять не надо),
(3) скачать новый торрент и запустить его у себя в клиенте вместо старого, при этом указать клиенту путь в старую папку куда и должно происходить скачивание новых серий.
Ваш клиент при этом должен произвести хеширование (проверку) старой папки (если не производит сам - помогите ему сделать это), и будет докачивать только те серии которых у вас ещё нет. Старые серии при этом не удаляются, а продолжают раздаваться!
Eсли вы уже удалили старые серии, то предотвратить повторную закачку старых серий можно, отжав галочку в соответствующих местах при запуске нового торрента. По возможности, желательно не удалять старые серии как можно дольше чтобы релизёр не столько продолжал раздавать старые серии, а смог сконцентрироваться на новых.
-

MediaInfo

Общее
Уникальный идентификатор : 182895372394864153616338296162464673061 (0x89985E107349D6BAA5756F9586D5AD25)
Полное имя : D:\Фильмы,Сериалы\chicago.fire.s04.WEB-DL.1080p.Rus.Eng\Chicago.Fire.s04e01.1080p.WEB-DL.Rus[shad].Eng.mkv
Формат : Matroska
Версия формата : Version 4 / Version 2
Размер файла : 1,71 Гбайт
Продолжительность : 42 м.
Общий поток : 5777 Кбит/сек
Дата кодирования : UTC 2015-10-25 13:42:05
Программа кодирования : mkvmerge v7.3.0 ('Nouages') 64bit built on Oct 22 2014 18:53:34
Библиотека кодирования : libebml v1.3.0 + libmatroska v1.4.1
_STATISTICS_WRITING_APP : mkvmerge v7.3.0 ('Nouages') 64bit built on Oct 22 2014 18:53:34
_STATISTICS_WRITING_DATE_UTC : 2015-10-25 13:42:05
_STATISTICS_TAGS : BPS DURATION NUMBER_OF_FRAMES NUMBER_OF_BYTES
DURATION : 00:42:19.034000000
NUMBER_OF_FRAMES : 762
NUMBER_OF_BYTES : 29266
Видео
Идентификатор : 1
Формат : AVC
Формат/Информация : Advanced Video Codec
Профиль формата : High@L4
Параметр CABAC формата : Да
Параметр ReFrames формата : 4 кадра
Идентификатор кодека : V_MPEG4/ISO/AVC
Продолжительность : 42 м.
Битрейт : 4894 Кбит/сек
Ширина : 1920 пикселей
Высота : 1080 пикселей
Соотношение сторон : 16:9
Режим частоты кадров : Постоянный
Частота кадров : 23,976 кадра/сек
Цветовое пространство : YUV
Субдискретизация насыщенности : 4:2:0
Битовая глубина : 8 бит
Тип развёртки : Прогрессивная
Бит/(Пиксели*Кадры) : 0.098
Размер потока : 1,45 Гбайт (85%)
Язык : English
Default : Да
Forced : Нет
Цветовой диапазон : Limited
Основные цвета : BT.709
Характеристики трансфера : BT.709
Коэффициенты матрицы : BT.709
Аудио #1
Идентификатор : 2
Формат : AC-3
Формат/Информация : Audio Coding 3
Расширение режима : CM (complete main)
Параметр Endianness формата : Big
Идентификатор кодека : A_AC3
Продолжительность : 42 м.
Вид битрейта : Постоянный
Битрейт : 384 Кбит/сек
Каналы : 6 каналов
Расположение каналов : Front: L C R, Side: L R, LFE
Частота : 48,0 КГц
Метод сжатия : С потерями
Размер потока : 117 Мбайт (7%)
Язык : Russian
Default : Да
Forced : Нет
Аудио #2
Идентификатор : 3
Формат : AC-3
Формат/Информация : Audio Coding 3
Расширение режима : CM (complete main)
Параметр Endianness формата : Big
Идентификатор кодека : A_AC3
Продолжительность : 42 м.
Вид битрейта : Постоянный
Битрейт : 384 Кбит/сек
Каналы : 6 каналов
Расположение каналов : Front: L C R, Side: L R, LFE
Частота : 48,0 КГц
Метод сжатия : С потерями
Размер потока : 117 Мбайт (7%)
Язык : English
Default : Нет
Forced : Нет
Текст
Идентификатор : 4
Формат : UTF-8
Идентификатор кодека : S_TEXT/UTF8
Идентификатор кодека/Информация : UTF-8 Plain Text
Язык : English
Default : Нет
Forced : Нет

Скриншоты

--
Вне форума [Профиль] [ЛС]
Показать сообщения:    
Ответить на тему

Текущее время: Сегодня 06:21

Часовой пояс: GMT + 3



Вы не можете начинать темы
Вы не можете отвечать на сообщения
Вы не можете редактировать свои сообщения
Вы не можете удалять свои сообщения
Вы не можете голосовать в опросах
Вы не можете прикреплять файлы к сообщениям
Вы не можете скачивать файлы