Сегодня идет свободное скачивание без начисления Download

Шетланд / Shetland / Сезон: 3 / Серии: 1-2 из 6 (Thaddeus O\'Sullivan, Jan Matthys) [2016, Детектив, криминальная драма, WEB-DLRip-AVC] Original + Rus Subs + Original

Ответить на тему
 
Автор
Сообщение

Omen ®

Стаж: 6 лет 1 месяц

Сообщений: 184308

Торрент-статистика

Пост 05-Фев-2016 21:03

[Цитировать]

Шетланд / Shetland
Год выпуска: 2016
Страна: Великобритания
Жанр: Детектив, криминальная драма
Продолжительность: 00:59:00
Перевод: Субтитры (victoria_vn, Desire2107, SolidS, Alexdezh, yurabukin, Vela)
Режиссёры: Thaddeus O'Sullivan, Jan Matthys
В ролях:
Дуглас Хеншэлл - детектив-инспектор Джимми Перес
Элисон О'Доннэлл - детектив-сержант Элисон "Тош" МакИнтош
Стивен Робертсон - детектив-констебль Сэнди Уилсон
Саския Ривз и др.
Описание: Действие сериала разворачивается на фоне суровых Шетландских островов.
Детектив-инспектор Джимми Перес вместе со своими помощниками разбирается в обстоятельствах убийств.
Его присутствие придаёт каждому расследованию своеобразный эффект присутствия.
Серии 1-2. Девушка (Лианн) знакомится на пароме с отличным парнем Робби, но утром нигде не может его обнаружить. А в это время на южном пляже самого большого острова обнаруживается множество пакетиков с разноцветными таблетками. Джиммии Перес неожиданно сталкивается с противодействием в расследовании "изнутри", а у сержанта Тош появляется нежданный поклонник.
Доп. информация:

Шетландские острова


Общая площадь — 1471 км², из которых 967 км² приходится на «Главный остров», Мейнленд.
На нем находится административный центр и крупнейший населенный пункт — Леруик. Численность населения островов - немногим более 23 тыс. человек
Сэмпл: тут
Качество: WEB-DLRip
Формат: MP4
Видео: AVC, 1280x720 (1.778), 25.000 fps, ~2300 kbps
Аудио: AAC, 48 kHz, 2 ch, 93 kbps
Субтитры: русские, отдельно, srt

MediaInfo

Полное имя : D:\bin\Shetland S03\Shetland.s03e01.mp4
Формат : MPEG-4
Профиль формата : Base Media
Идентификатор кодека : isom
Размер файла : 986 Мбайт
Продолжительность : 57 м.
Режим общего битрейта : Переменный
Общий поток : 2387 Кбит/сек
Сезон : 3
Название фильма : Shetland: Series 3
Альбом : Shetland: Series 3
Альбом/Исполнитель : BBC TV
Часть : 1
Часть/Положение : 3
Трек/Положение : 1
Группирование : Drama,Crime
Исполнитель : BBC One
Композитор : BBC iPlayer
Жанр : Drama
Тип содержимого : TV Show
Описание : A young man disappears on the Aberdeen to Shetland ferry crossing.
Дата записи : UTC 2016-01-15 21:00:00
Дата пометки : UTC 2016-01-16 01:50:46
Программа кодирования : Lavf54.63.104
Правообладатель : 2016 British Broadcasting Corporation, all rights reserved
Обложка : Yes
Текст песен : When a young man disappears on the Aberdeen to Shetland ferry crossing and a small boy ends up in intensive care, DI Jimmy Perez and his team investigate, becoming convinced the two events are connected. / / EPISODE / http://www.bbc.co.uk/iplayer/episode/b06wkd20 / / SERIES / http://www.bbc.co.uk/programmes/b06wp3y7
Примечание : A young man disappears on the Aberdeen to Shetland ferry crossing.
LongDescription : When a young man disappears on the Aberdeen to Shetland ferry crossing and a small boy ends up in intensive care, DI Jimmy Perez and his team investigate, becoming convinced the two events are connected.
HDVideo : Yes
Part_ID : s03e01
TVNetworkName : BBC One
Видео
Идентификатор : 1
Формат : AVC
Формат/Информация : Advanced Video Codec
Профиль формата : High@L4.1
Параметр CABAC формата : Да
Параметр ReFrames формата : 2 кадра
Идентификатор кодека : avc1
Идентификатор кодека/Информация : Advanced Video Coding
Продолжительность : 57 м.
Вид битрейта : Переменный
Битрейт : 2288 Кбит/сек
Максимальный битрейт : 3500 Кбит/сек
Ширина : 1280 пикселей
Высота : 720 пикселей
Соотношение сторон : 16:9
Режим частоты кадров : Постоянный
Частота кадров : 25,000 кадров/сек
Цветовое пространство : YUV
Субдискретизация насыщенности : 4:2:0
Битовая глубина : 8 бит
Тип развёртки : Прогрессивная
Бит/(Пиксели*Кадры) : 0.099
Размер потока : 945 Мбайт (96%)
Аудио
Идентификатор : 2
Формат : AAC
Формат/Информация : Advanced Audio Codec
Профиль формата : LC
Идентификатор кодека : 40
Продолжительность : 57 м.
Вид битрейта : Постоянный
Битрейт : 93,5 Кбит/сек
Каналы : 2 канала
Расположение каналов : Front: L R
Частота : 48,0 КГц
Метод сжатия : С потерями
Размер потока : 38,6 Мбайт (4%)

Скриншоты

Вне форума [Профиль] [ЛС]
Показать сообщения:    
Ответить на тему

Текущее время: Сегодня 18:39

Часовой пояс: GMT + 3



Вы не можете начинать темы
Вы не можете отвечать на сообщения
Вы не можете редактировать свои сообщения
Вы не можете удалять свои сообщения
Вы не можете голосовать в опросах
Вы не можете прикреплять файлы к сообщениям
Вы не можете скачивать файлы