Сегодня идет свободное скачивание без начисления Download

Чисто английские убийства / Midsomer Murders / Сезон: 18 / Серии: 1 из 6 (Alex Pillai) [2016, Детектив, HDTVRip] VO (reiser)

Ответить на тему
 
Автор
Сообщение

Omen ®

Стаж: 5 лет 11 месяцев

Сообщений: 184329

Торрент-статистика

Пост 05-Фев-2016 18:00

[Цитировать]

Чисто английские убийства | Midsomer Murders | Сезон 18- Год выпуска: 2016
Страна: Великобритания
Жанр: Детектив
Продолжительность: ~01:30:00-Перевод: любительский (одноголосый закадровый) - reiser
Русские субтитры: нет
Перевод: wdata
Субтитры: отсутствуют-Режиссёр: Alex Pillai-В ролях: Neil Dudgeon, Gwilym Lee, Fiona Dolman, Tamzin Malleson-Описание: Чисто английский сериал по чисто английским романам Каролины Грэм. От перемены мест слагаемых сумма английского детектива не меняется, и время не властно над истинными ценностями. Чопорные островитяне по-прежнему совершают самые изощренные преступления, за ними с самым обстоятельным и почтительным видом следуют элегантные сыщики, а фоном для этих сдержанных страстей остаются зеленые лужайки и тенистые аллеи, сумрачные кабинеты и холодные спальни. Почти все действие происходит в деревнях небольшого, образцово безмятежного графства Мидсомер. Иной раз на этом пасторальном фоне происходит такое, чего и в столицах не видывали. А службу, которая опасна и трудна, деревенские полицейские не выбирают.-Релиз группы:
-Британские Детективные Сериалы- -Видео кодек: XviD
Аудио кодек: MP3
Видео: 720x400, 25 fps, XviD MPEG-4 ~973Kbps, 0.135 bit/pixel
Аудио: 48 kHz, MPEG Layer 3, 2 ch, 128 kbps-

MediaInfo

General
Complete name : Midsomer.Murders.S18E01.HDTVRip.Rus.reiser.avi
Format : AVI
Format/Info : Audio Video Interleave
File size : 703 MiB
Duration : 1h 28mn
Overall bit rate : 1 111 Kbps
Writing application : VirtualDubMod 1.5.10.2 (build 2540/release)
Writing library : VirtualDubMod build 2540/release
Video #0
ID : 0
Format : MPEG-4 Visual
Format profile : Advanced Simple@L5
Format settings, BVOP : 1
Format settings, QPel : No
Format settings, GMC : No warppoints
Format settings, Matrix : Default (MPEG)
Codec ID : XVID
Codec ID/Hint : XviD
Duration : 1h 28mn
Bit rate : 974 Kbps
Width : 720 pixels
Height : 400 pixels
Display aspect ratio : 16:9
Frame rate : 25.000 fps
Color space : YUV
Chroma subsampling : 4:2:0
Bit depth : 8 bits
Scan type : Progressive
Compression mode : Lossy
Bits/(Pixel*Frame) : 0.135
Stream size : 616 MiB (88%)
Writing library : XviD 1.2.1 (UTC 2008-12-04)
Audio #1
ID : 1
Format : MPEG Audio
Format version : Version 1
Format profile : Layer 3
Codec ID : 55
Codec ID/Hint : MP3
Duration : 1h 28mn
Bit rate mode : Constant
Bit rate : 128 Kbps
Channel(s) : 2 channels
Sampling rate : 48.0 KHz
Compression mode : Lossy
Stream size : 80.9 MiB (12%)
Alignment : Aligned on interleaves
Interleave, duration : 40 ms (1.00 video frame)
Interleave, preload duration : 504 ms
Writing library : LAME3.98r
Encoding settings : -m s -V 4 -q 2 -lowpass 17 -b 128

Скриншоты

Список серий

1. Habeas Corpus

Раздача ведётся путём добавления новых серий

Раздача ведётся путём добавления новых серий; при каждом добавлении создаётся новый торрент. Чтобы начать докачку новой серии, пользователям необходимо сделать следующее:
(1) остановить скачивание,
(2) удалить старый торрент у себя из клиента (старые серии удалять не надо),
(3) скачать новый торрент и запустить его у себя в клиенте вместо старого, при этом указать клиенту путь в старую папку куда и должно происходить скачивание новых серий.
Ваш клиент при этом должен произвести хеширование (проверку) старой папки (если не производит сам - помогите ему сделать это), и будет докачивать только те серии которых у вас ещё нет. Старые серии при этом не удаляются, а продолжают раздаваться!
Eсли вы уже удалили старые серии, то предотвратить повторную закачку старых серий можно, отжав галочку в соответствующих местах при запуске нового торрента. По возможности, желательно не удалять старые серии как можно дольше чтобы релизёр не столько продолжал раздавать старые серии, а смог сконцентрироваться на новых.
-Добавлена 1 серия!
Вне форума [Профиль] [ЛС]
Показать сообщения:    
Ответить на тему

Текущее время: Сегодня 15:02

Часовой пояс: GMT + 3



Вы не можете начинать темы
Вы не можете отвечать на сообщения
Вы не можете редактировать свои сообщения
Вы не можете удалять свои сообщения
Вы не можете голосовать в опросах
Вы не можете прикреплять файлы к сообщениям
Вы не можете скачивать файлы