Сегодня идет свободное скачивание без начисления Download

Фабрика желаний / The Sausage Factory / Сезон: 1 / Серии: 1-13 из 13 (Милан Чейлов, Рон Оливер, Джон Позер, Энтони Аткинс, Ричард Мартин) [2001, Комедия, TVRip] MVO (MTV)

Ответить на тему
 
Автор
Сообщение

Omen ®

Стаж: 5 лет 9 месяцев

Сообщений: 184402

Торрент-статистика

Пост 05-Фев-2016 00:00

[Цитировать]

Фабрика желаний / The Sausage Factory
Год выпуска: 2001
Страна: Канада, CША
Жанр: Комедия
Продолжительность: ~20 мин
Перевод: Профессиональный (многоголосый закадровый) MTV
Режиссёр: Милан Чейлов, Рон Оливер, Джон Позер, Энтони Аткинс, Ричард Мартин
В ролях: Адам Броди, Адам Фрост, Энди Айстад, Кенни Фишер, Джонни Льюис, Кристен Рентон, Эми Адамсон, Одри Хэвен и др.
Описание: Комедийный сериал о буднях обычной американской школы. В центре сюжета четыре друга — Тед, желающий расстаться со своей подругой Нэнси; Зак, который никак не может признаться в чувствах к Лизе; Джей Си, каждый раз находящий себе необычных и таинственных женщин, и Гилби, эпицентр разнообразных проблем.
Сэмпл: https://yadi.sk/i/gMqy1b05oJbdE
Качество: TVRip
Формат: AVI
Видео: 720х528, 25 fps, 1328 kbps
Аудио: 44 kHz, 2 ch, 128 kbps
Субтитры: отсутствуют

Список серий

13 Good Ted Hunting
12 Reality Bites
11 The Tux
10 Sex, Guys, and Videotape
09 Gilby's Millions
07.01.2002 08 Community Impact
31.12.2001 07 Purity Test
06 Hang Ups
05 Election
04 JC, the Gay Model
03 Zack's Little Problem
02 Running Free
01 Dances with Squirrels

MediaInfo

Общее
Полное имя : C:\Downloads\the.sausage.factory.s01.e01.TVrip.rus.avi
Формат : AVI
Формат/Информация : Audio Video Interleave
Размер файла : 200 Мбайт
Продолжительность : 20 м.
Общий поток : 1339 Кбит/сек
Программа кодирования : Axara Ltd.
Видео
Идентификатор : 0
Формат : MPEG-4 Visual
Профиль формата : Advanced Simple@L5
Параметр BVOP формата : 2
Параметр QPel формата : Нет
Параметр GMC формата : Без точки перехода
Параметр матрицы формата : Default (H.263)
Режим смешивания : Сжатый битовый поток
Идентификатор кодека : XVID
Идентификатор кодека/Подсказка : XviD
Продолжительность : 20 м.
Битрейт : 1199 Кбит/сек
Ширина : 720 пикселей
Высота : 528 пикселей
Соотношение сторон : 4:3
Частота кадров : 25,000 кадров/сек
Цветовое пространство : YUV
Субдискретизация насыщенности : 4:2:0
Битовая глубина : 8 бит
Тип развёртки : Прогрессивная
Метод сжатия : С потерями
Бит/(Пиксели*Кадры) : 0.126
Размер потока : 179 Мбайт (90%)
Библиотека кодирования : XviD 1.2.1 (UTC 2008-12-04)
Аудио
Идентификатор : 1
Формат : MPEG Audio
Версия формата : Version 1
Профиль формата : Layer 3
Режим : Joint stereo
Идентификатор кодека : 55
Идентификатор кодека/Подсказка : MP3
Продолжительность : 20 м.
Вид битрейта : Постоянный
Битрейт : 128 Кбит/сек
Каналы : 2 канала
Частота : 44,1 КГц
Метод сжатия : С потерями
Размер потока : 19,1 Мбайт (10%)
Выравнивание : Разделение по промежуткам
Продолжительность промежутка : 26 мс. (0,65 видеокадр)

Скриншоты

Вне форума [Профиль] [ЛС]
Показать сообщения:    
Ответить на тему

Текущее время: Сегодня 08:02

Часовой пояс: GMT + 3



Вы не можете начинать темы
Вы не можете отвечать на сообщения
Вы не можете редактировать свои сообщения
Вы не можете удалять свои сообщения
Вы не можете голосовать в опросах
Вы не можете прикреплять файлы к сообщениям
Вы не можете скачивать файлы