Сегодня идет свободное скачивание без начисления Download

Я – зомби / iZombie / Сезон: 2 / Серии: 1-11 из 13 (Роб Томас, Майрзи Алмас) [2015, ужасы, фантастика, драма, криминал, WEB-DLRip] MVO (BaibaKo) + Original

Ответить на тему
 
Автор
Сообщение

Omen ®

Стаж: 5 лет 7 месяцев

Сообщений: 185427

Торрент-статистика

Пост 04-Фев-2016 18:03

[Цитировать]

Я – зомби / iZombie
Год выпуска: 2015
Страна: США
Жанр: ужасы, фантастика, драма, криминал
Продолжительность: ~ 00:43:00
Перевод: Профессиональный (многоголосый закадровый) | BaibaKo
Режиссёр: Роб Томас, Майрзи Алмас
В ролях: Роуз МакИвер, Малкольм Гудвин, Рахул Коли, Молли Хэйгэн, Ник Пурча, Элиз Гэтьен, Мэттью МакКоулл, Роб Карпентер, Сунита Прасад, Ализа Веллани, Энди Ю, Джефф Парис, Лиэнн Лэпп, Даррен Э. Скотт, Дэвид Андерс, Роберт Бакли
Описание: В центре сюжета — студентка медицинского факультета Оливия «Лив» Мур, для которой последствия одной из вечеринок стали переломным моментом в жизни, превратившим её в зомби. Жизнерадостная, активная и пышущая здоровьем раньше, теперь Лив похожа на представителя готов — с бледной кожей, тёмными кругами вокруг глаз и почти белыми волосами. Она устраивается на работу в офис коронера, доктора Рави Чакрабарти, чтобы иметь доступ к мозгам, которые ей приходиться есть, чтобы поддерживать свою человеческую сущность. Однако с каждым съеденным ею мозгом она наследует воспоминания трупа. С помощью босса доктора Чакрабарти, узнавшего её секрет, и детектива полиции Клайва Бабино Лив способна разгадывать убийства тех людей, чей мозг она съела.

Качество: WEB-DLRip
Формат: AVI
Видео: 720x400 (1.80:1), 23.976 fps, XviD build 73 ~1500 kbps avg, 0.22 bit/pixel
Аудио #1: 48 kHz, MPEG Layer 3, 2 ch, ~192.00 kbps avg (Rus)
Аудио #2: 48 kHz, MPEG Layer 3, 2 ch, ~192.00 kbps avg (Eng)
Субтитры: отсутствуют

Релиз

Релиз-группа:
Перевод: Ольга Пашкова
Озвучка: Ольга Мотрич, Татьяна Оболевич, Руслан Иванов и Олекса Мельник
Монтаж: Виталий Ткаченко
Обложка: tvblog

Список серий

Эпизод 01. Ворчливая старая Лив (Grumpy Old Liv)
Эпизод 02. Зомби-бро (Zombie Bro)
Эпизод 03. Настоящие мёртвые домохозяйки Сиэтла (Real Dead Housewife of Seattle)
Эпизод 04. И у девочек-ковбоев бывает чёрная полоса (Even Cowgirls Get the Black & Blues)
Эпизод 05. Любовь и баскетбол (Love & Basketball)
Эпизод 06. Ставка на Макс (Max Wager)
Эпизод 07. Абра-кадавр (Abra Cadaver)
Эпизод 08. Жестокий сталкер (The Hurt Stalker)
Эпизод 09. Кейптаун (Cape Town)
Эпизод 10. Методичный мозг (Method Head)

MediaInfo

Общее
Полное имя : D:\TORRENT\iZombie (S02) BaibaKo\iZombie.s02e01.WEB-DLRip.XviD.Rus.Eng.BaibaKo.avi
Формат : AVI
Формат/Информация : Audio Video Interleave
Размер файла : 576 Мбайт
Продолжительность : 42 м.
Общий поток : 1898 Кбит/сек
Программа кодирования : VirtualDubMod 1.5.10.3 | www.virtualdub-fr.org || (build 2550/release)
Библиотека кодирования : VirtualDubMod build 2550/release
Видео
Идентификатор : 0
Формат : MPEG-4 Visual
Профиль формата : Advanced Simple@L5
Параметр BVOP формата : 2
Параметр QPel формата : Нет
Параметр GMC формата : Без точки перехода
Параметр матрицы формата : Default (MPEG)
Идентификатор кодека : XVID
Идентификатор кодека/Подсказка : XviD
Продолжительность : 42 м.
Битрейт : 1500 Кбит/сек
Ширина : 720 пикселей
Высота : 400 пикселей
Соотношение сторон : 16:9
Частота кадров : 23,976 кадра/сек
Цветовое пространство : YUV
Субдискретизация насыщенности : 4:2:0
Битовая глубина : 8 бит
Тип развёртки : Прогрессивная
Метод сжатия : С потерями
Бит/(Пиксели*Кадры) : 0.217
Размер потока : 456 Мбайт (79%)
Библиотека кодирования : XviD 1.2.1 (UTC 2008-12-04)
Аудио #1
Идентификатор : 1
Формат : MPEG Audio
Версия формата : Version 1
Профиль формата : Layer 3
Идентификатор кодека : 55
Идентификатор кодека/Подсказка : MP3
Продолжительность : 42 м.
Вид битрейта : Постоянный
Битрейт : 192 Кбит/сек
Каналы : 2 канала
Частота : 48,0 КГц
Метод сжатия : С потерями
Размер потока : 58,3 Мбайт (10%)
Выравнивание : Соединение по промежуткам
Продолжительность промежутка : 42 мс. (1,00 видеокадр)
Время предзагрузки промежутка : 504 мс.
Библиотека кодирования : LAME3.99r
Настройки программы : -m s -V 4 -q 0 -lowpass 18.6 -b 192
Аудио #2
Идентификатор : 2
Формат : MPEG Audio
Версия формата : Version 1
Профиль формата : Layer 3
Идентификатор кодека : 55
Идентификатор кодека/Подсказка : MP3
Продолжительность : 42 м.
Вид битрейта : Постоянный
Битрейт : 192 Кбит/сек
Каналы : 2 канала
Частота : 48,0 КГц
Метод сжатия : С потерями
Размер потока : 58,3 Мбайт (10%)
Выравнивание : Соединение по промежуткам
Продолжительность промежутка : 42 мс. (1,00 видеокадр)
Время предзагрузки промежутка : 504 мс.
Библиотека кодирования : LAME3.99r
Настройки программы : -m s -V 4 -q 0 -lowpass 18.6 -b 192

Скриншоты

Внимание! Раздача ведётся путём добавления новых серий

Внимание! Раздача ведётся путём добавления новых серий; при каждом добавлении создаётся новый торрент. Чтобы начать докачку новой серии, пользователям необходимо сделать следующее:
(1) остановить скачивание,
(2) удалить старый торрент у себя из клиента (старые серии удалять не надо),
(3) скачать новый торрент и запустить его у себя в клиенте вместо старого, при этом указать клиенту путь в старую папку куда и должно происходить скачивание новых серий.
Ваш клиент при этом должен произвести хеширование (проверку) старой папки (если не производит сам - помогите ему сделать это), и будет докачивать только те серии которых у вас ещё нет. Старые серии при этом не удаляются, а продолжают раздаваться!
Eсли вы уже удалили старые серии, то предотвратить повторную закачку старых серий можно, отжав галочку в соответствующих местах при запуске нового торрента. По возможности, желательно не удалять старые серии как можно дольше, чтобы релизёр не столько продолжал раздавать старые серии, а смог сконцентрироваться на новых.
Вне форума [Профиль] [ЛС]
Показать сообщения:    
Ответить на тему

Текущее время: Сегодня 16:30

Часовой пояс: GMT + 3



Вы не можете начинать темы
Вы не можете отвечать на сообщения
Вы не можете редактировать свои сообщения
Вы не можете удалять свои сообщения
Вы не можете голосовать в опросах
Вы не можете прикреплять файлы к сообщениям
Вы не можете скачивать файлы