Сегодня идет свободное скачивание без начисления Download

Библиотекари / The Librarians / Сезон: 2 / Серии: 1-10 из 10 (Дин Девлин, Марк Роскин, Джонатан Фрейкс) [2015, фантастика, приключения, WEB-DLRip] MVO (ViruseProject)

Ответить на тему
 
Автор
Сообщение

Omen ®

Стаж: 5 лет 11 месяцев

Сообщений: 184329

Торрент-статистика

Пост 04-Фев-2016 09:00

[Цитировать]

Библиотекари / The Librarians Год выпуска: 2015
Страна: США
Жанр: фантастика, приключения
Продолжительность: ~00:55:00
Перевод: Профессиональный (многоголосый закадровый) ViruseProject
Режиссёр: Дин Девлин, Марк Роскин, Джонатан Фрейкс
В ролях: Ребекка Ромейн, Кристиан Кэйн, Джон Ким, Линди Бут, Джон Ларрокетт, Ноа Уайли, Лесли-Энн Брандт, Боб Ньюхарт, Джейн Куртин, Мэтт Фрюэр и др.
Описание: Если зайти в здание нью-йоркской публичной библиотеки, повернуть направо, шагнуть в магический портал и спуститься в лифте на самый нижний этаж, то попадешь в Библиотеку - хранилище древних знаний и опасных магических артефактов. Там работают Библиотекарь и его помощники, которые спасают мир каждый день (по пятницам - дважды).
Новый приключенческий сериал от канала TNT, основанный на персонажах всемирно известной серии фильмов Дэвида Титчера.
Качество: HDTVRip
Формат: AVI
Видео: 720x400 (1.80:1), 23.976 fps, XviD MPEG-4 ~1500 kbps avg, 0.22 bit/pixel
Аудио: 48 kHz, MPEG Layer 3, 2 ch, ~192.00 kbps avg
Субтитры: отсутствуют

Внимание! Раздача ведётся путём добавления новых серий

Внимание! Раздача ведётся путём добавления новых серий; при каждом добавлении создаётся новый торрент. Чтобы начать докачку новой серии, пользователям необходимо сделать следующее:
(1) остановить скачивание,
(2) удалить старый торрент у себя из клиента (старые серии удалять не надо),
(3) скачать новый торрент и запустить его у себя в клиенте вместо старого, при этом указать клиенту путь в старую папку куда и должно происходить скачивание новых серий.
Ваш клиент при этом должен произвести хеширование (проверку) старой папки (если не производит сам - помогите ему сделать это), и будет докачивать только те серии которых у вас ещё нет. Старые серии при этом не удаляются, а продолжают раздаваться!
Eсли вы уже удалили старые серии, то предотвратить повторную закачку старых серий можно, отжав галочку в соответствующих местах при запуске нового торрента. По возможности, желательно не удалять старые серии как можно дольше чтобы релизёр не столько продолжал раздавать старые серии, а смог сконцентрироваться на новых.

MediaInfo

General
Complete name : D:\СЕРИАЛЫ\The.Librarians.S01.ViruseProject\The.Librarians.S01.ViruseProject\The.Librarians.S01E01.ViruseProject.avi
Format : AVI
Format/Info : Audio Video Interleave
File size : 679 MiB
Duration : 57mn 56s
Overall bit rate : 1 638 Kbps
Writing application : VirtualDubMod 1.5.10.2 (build 2540/release)
Writing library : VirtualDubMod build 2540/release
Video
ID : 0
Format : MPEG-4 Visual
Format profile : Advanced Simple@L5
Format settings, BVOP : 2
Format settings, QPel : No
Format settings, GMC : No warppoints
Format settings, Matrix : Default (H.263)
Muxing mode : Packed bitstream
Codec ID : XVID
Codec ID/Hint : XviD
Duration : 57mn 56s
Bit rate : 1 501 Kbps
Width : 720 pixels
Height : 400 pixels
Display aspect ratio : 16:9
Frame rate : 23.976 fps
Color space : YUV
Chroma subsampling : 4:2:0
Bit depth : 8 bits
Scan type : Progressive
Compression mode : Lossy
Bits/(Pixel*Frame) : 0.217
Stream size : 622 MiB (92%)
Writing library : XviD 1.2.1 (UTC 2008-12-04)
Audio
ID : 1
Format : MPEG Audio
Format version : Version 1
Format profile : Layer 3
Mode : Joint stereo
Mode extension : MS Stereo
Codec ID : 55
Codec ID/Hint : MP3
Duration : 57mn 56s
Bit rate mode : Constant
Bit rate : 128 Kbps
Channel(s) : 2 channels
Sampling rate : 48.0 KHz
Compression mode : Lossy
Stream size : 53.0 MiB (8%)
Alignment : Aligned on interleaves
Interleave, duration : 42 ms (1.00 video frame)
Interleave, preload duration : 504 ms

Скриншоты

Вне форума [Профиль] [ЛС]
Похожие темы
Форум Тема Автор Торрент Отв. Посл. сообщение
./templates/default/images/folder_sticky.gif Разножанровые коллекции книг и библиотеки Библиотека Либрусек по состоянию на 01.05.2018 + MultiLib [FB2] (Wanraik edition) Theseus
1 | 0

0 | 2594

4

2017-03-15 17:03
Theseus Последнее
./templates/default/images/folder_sticky.gif Разножанровые коллекции книг и библиотеки Библиотека Либрусек + MyHomeLib от 07.10.2018 [FB2] | Официальная версия Theseus
1 | 0

0 | 49399

2

2017-09-04 20:52
Theseus Последнее
./templates/default/images/folder_dl.gif Для детей, родителей и учителей Книжная серия | Библиотека мировой литературы для детей [58 книг] (1976 -1992) [DJVU, PDF] [Обновляемая] XP1971
1 | 0

0 | 2467

4

2017-12-10 10:04
XP1971 Последнее
Показать сообщения:    
Ответить на тему

Текущее время: Сегодня 07:12

Часовой пояс: GMT + 3



Вы не можете начинать темы
Вы не можете отвечать на сообщения
Вы не можете редактировать свои сообщения
Вы не можете удалять свои сообщения
Вы не можете голосовать в опросах
Вы не можете прикреплять файлы к сообщениям
Вы не можете скачивать файлы