Сегодня идет свободное скачивание без начисления Download

Секретные материалы / The X-Files / Сезон: 10 / Серии: 1-3 из 6 (Крис Картер, Дэрин Морган, Глен Морган) [2016, Фантастика, триллер, драма, детектив, WEB-DLRip] MVO (BaibaKo) + Original

Ответить на тему
 
Автор
Сообщение

Omen ®

Стаж: 5 лет 11 месяцев

Сообщений: 184329

Торрент-статистика

Пост 04-Фев-2016 03:00

[Цитировать]

Секретные материалыThe X-Files- Год выпуска: 2016
Страна: США
Жанр: Фантастика, триллер, драма, детектив
Продолжительность: 00:44:00
Перевод: Профессиональный (многоголосый закадровый) BaibaKo-Режиссёр: Крис Картер, Дэрин Морган, Глен Морган
В ролях: Дэвид Духовны, Джиллиан Андерсон, Митч Пиледжи, Уильям Б. Дэвис, Робби Амелл, Том Брэйдвуд, Дин Хэглунд, Брюс Харвуд, Джоэл МакХэйл, Лорен Эмброуз-Описание: Самый популярный сериал про внеземные цивилизации и таинственные явления снова выходит на экраны «Секретные материалы: Перезагрузка» 10 сезон. Прошлый сезон данного проекта зрители смогли видеть почти тринадцать лет назад. Сейчас создатели телеканала Fox решили возродить нашумевший сериал. В роли самых лучших сыщиков снова выступают, несравненная агент Дана Скалли роль, которой исполняет Джиллиан Андерсон и обаятельный агент Малдер (Дэвид Духовны). Может быть, главные герои изменились на такой промежуток времени. С самого начала агент Скалли не верила в сверхъестественные силы и пыталась найти достойные объяснения происходящему. А агент Малдер, наоборот, верил во все, ведь еще в детстве он видел, как его младшую сестру похитили пришельцы прямо из их дома.-Доп. информация: Без рекламных ВидеоАудио вставок-Сэмпл-Качество: WEB-DLRip
Формат: AVI
Видео: XviD, 720x400 (16:9), 23,976 fps, ~1500 kbps
Аудио Rus.: MP3, 48 kHz, 2 ch, 128 kbps
Аудио Eng.: MP3, 48 kHz, 2 ch, 128 kbps
Субтитры: отсутствуют

Список серий

01. Моя борьба My Struggle
02. Мутация основателя Founder's Mutation
03. Малдер и Скалли встречают монстра-оборотня (Mulder and Scully Meet the Were-Monster)

MediaInfo

Код:
Полное имя                               : The.X-Files.S10.WEB-DLRip.RusEng.BaibaKo\The.X-Files.S10E01.WEB-DLRip.RusEng.BaibaKo.L.avi
Формат                                   : AVI
Формат/Информация                        : Audio Video Interleave
Размер файла                             : 551 Мбайт
Продолжительность                        : 43 м.
Общий поток                              : 1752 Кбит/сек
Программа кодирования                    : VirtualDubMod 1.5.10.3 (build 2550/release)
Библиотека кодирования                   : VirtualDubMod build 2550/release
Видео
Идентификатор                            : 0
Формат                                   : MPEG-4 Visual
Профиль формата                          : Advanced Simple@L5
Параметр BVOP формата                    : 1
Параметр QPel формата                    : Нет
Параметр GMC формата                     : Без точки перехода
Параметр матрицы формата                 : Default (H.263)
Идентификатор кодека                     : XVID
Идентификатор кодека/Подсказка           : XviD
Продолжительность                        : 43 м.
Битрейт                                  : 1482 Кбит/сек
Ширина                                   : 720 пикселей
Высота                                   : 400 пикселей
Соотношение сторон                       : 16:9
Частота кадров                           : 23,976 кадра/сек
Цветовое пространство                    : YUV
Субдискретизация насыщенности            : 4:2:0
Битовая глубина                          : 8 бит
Тип развёртки                            : Прогрессивная
Метод сжатия                             : С потерями
Бит/(Пиксели*Кадры)                      : 0.215
Размер потока                            : 466 Мбайт (85%)
Библиотека кодирования                   : XviD 73
Аудио #1
Идентификатор                            : 1
Формат                                   : MPEG Audio
Версия формата                           : Version 1
Профиль формата                          : Layer 3
Режим                                    : Joint stereo
Расширение режима                        : MS Stereo
Идентификатор кодека                     : 55
Идентификатор кодека/Подсказка           : MP3
Продолжительность                        : 43 м.
Вид битрейта                             : Постоянный
Битрейт                                  : 128 Кбит/сек
Каналы                                   : 2 канала
Частота                                  : 48,0 КГц
Метод сжатия                             : С потерями
Размер потока                            : 40,2 Мбайт (7%)
Выравнивание                             : Соединение по промежуткам
Продолжительность промежутка             : 42  мс. (1,00 видеокадр)
Время предзагрузки промежутка            : 504  мс.
Аудио #2
Идентификатор                            : 2
Формат                                   : MPEG Audio
Версия формата                           : Version 1
Профиль формата                          : Layer 3
Режим                                    : Joint stereo
Расширение режима                        : MS Stereo
Идентификатор кодека                     : 55
Идентификатор кодека/Подсказка           : MP3
Продолжительность                        : 43 м.
Вид битрейта                             : Постоянный
Битрейт                                  : 128 Кбит/сек
Каналы                                   : 2 канала
Частота                                  : 48,0 КГц
Метод сжатия                             : С потерями
Размер потока                            : 40,2 Мбайт (7%)
Выравнивание                             : Соединение по промежуткам
Продолжительность промежутка             : 42  мс. (1,00 видеокадр)
Время предзагрузки промежутка            : 504  мс.

Скриншоты

Внимание! Раздача ведётся путём добавления новых серий

Внимание! Раздача ведётся путём добавления новых серий; при каждом добавлении создаётся новый торрент. Чтобы начать докачку новой серии, пользователям необходимо сделать следующее:
(1) остановить скачивание,
(2) удалить старый торрент у себя из клиента (старые серии удалять не надо),
(3) скачать новый торрент и запустить его у себя в клиенте вместо старого, при этом указать клиенту путь в старую папку куда и должно происходить скачивание новых серий.
Ваш клиент при этом должен произвести хеширование (проверку) старой папки (если не производит сам - помогите ему сделать это), и будет докачивать только те серии которых у вас ещё нет. Старые серии при этом не удаляются, а продолжают раздаваться!
Eсли вы уже удалили старые серии, то предотвратить повторную закачку старых серий можно, отжав галочку в соответствующих местах при запуске нового торрента. По возможности, желательно не удалять старые серии как можно дольше чтобы релизёр не столько продолжал раздавать старые серии, а смог сконцентрироваться на новых.
Вне форума [Профиль] [ЛС]
Похожие темы
Форум Тема Автор Торрент Отв. Посл. сообщение
./templates/default/images/folder_dl.gif Обучающее видео Секреты японского долголетия. Видеокурс [Юлия Резникова] (2014, Здоровье, PCRec) O.S.A.
0 | 1

0 | 625

13

2015-03-28 08:36
O.S.A. Последнее
./templates/default/images/folder_dl.gif Обучающее видео [Profileschool] | Секреты цветокоррекции слайдов и негативов (2015) PCRec [H.264/1080p] Omen
1 | 0

0 | 1348

27

2015-08-19 13:10
Omen Последнее
./templates/default/images/folder_dl.gif Обучающее видео Алекс Мэй | Секреты мужских мультиоргазмов (2017) HDRip [H.264/1080p-LQ] Omen
1 | 0

0 | 982

43

2016-03-09 03:57
Omen Последнее
./templates/default/images/folder_dl.gif Обучающее видео Сергей Патин | Секреты создания шикарных фотокниг 2.0 (2016) [unpacked] XP1971
1 | 0

0 | 3772

14

2017-06-15 15:26
XP1971 Последнее
./templates/default/images/folder_dl.gif Ролики, сайт рипы Будни русской секретарши в Лондоне (28 роликов) ( PornHub) [2017 г., Amateur, All Sex, Blowjob, Anal Blonde, Russian, WEB-DL, 720p] (Yasmi butt) XP1971
0 | 1

0 | 14558

33

2017-11-02 10:12
XP1971 Последнее
./templates/default/images/folder_dl.gif Медицина и Здоровье Антон Могучий | Тренируем мозг методом простукивания. Секреты нейрохирургов и шаманов (2016) [FB2] }{@R0N
1 | 0

0 | 425

4

2018-10-13 22:18
}{@R0N Последнее
Показать сообщения:    
Ответить на тему

Текущее время: Сегодня 07:12

Часовой пояс: GMT + 3



Вы не можете начинать темы
Вы не можете отвечать на сообщения
Вы не можете редактировать свои сообщения
Вы не можете удалять свои сообщения
Вы не можете голосовать в опросах
Вы не можете прикреплять файлы к сообщениям
Вы не можете скачивать файлы