Сегодня идет свободное скачивание без начисления Download

Война и Мир / War and Peace / Сезон: 1 / Серии: 1-5 из 6 (Том Харпер / Tom Harper) [2016 г., Драма, военный, история., HDTVRip 720p] MVO (Jaskier) + Original

Ответить на тему
 
Автор
Сообщение

Omen ®

Стаж: 5 лет 10 месяцев

Сообщений: 184329

Торрент-статистика

Пост 04-Фев-2016 00:03

[Цитировать]

Война и Мир / War and Peace- Оригинальное название: War & Peace
Русское название: Война и Мир
Год выпуска: 2016
Страна: Великобритания
Жанр: Драма, военный, история
Продолжительность: ~00:60:00-Перевод: Профессиональный (многоголосый закадровый) Студия Jaskier
Субтитры: Нет-Режиссёр: Том Харпер / Tom Harper-В ролях: Анейрин Барнард, Пол Дано, Лили Джеймс, Джеймс Нортон, Оливия Росс, Рори Кинэн, Гийом Форе, Дэвид Куилтер, Кит Коннор, Отто Фаррант, Хлоя Пирри, Теренс Бисли и другие-Описание: Широко известный роман Льва Николаевича Толстого «Война и мир» не раз был экранизирован. Вот теперь очередь дошла и до англичан. 1805 год. Россия. Сериал охватывает жизнь нескольких аристократических семей. Сюжет телесериала мало чем отличается от книги. Здесь также три основных героя. Андрей Болконский – хороший воин, взгляды на жизнь этого человека очень перспективные, Пьер Безухов – светский человек, любящий развлечения и веселье, азартные игры и не против выпить. И Наташа Ростова, которая на тот момент интересовалась только своим первым балом. Эти три человека образуют тот любовный треугольник, который будет в центре внимания на протяжении всего телесериала.-Сэмпл-Качество: HDTVRip 720p
Формат: MKV
Видео кодек: h.264
Аудио кодек: AC3
Видео: AVC, 1280x720 (16:9), 25fps, ~2900kbps ~0.130 bit/pixel-Аудио 1: Dolby AC3 48000Hz stereo 192Kbps Русский
Аудио 2: Dolby AC3 48000Hz stereo 192Kbps Оригинал (Английский)-

MediaInfo

Код:
General
Unique ID                   : 242960355060623682536918185326671929946 (0xB6C8765A03DBCB898E5FF90218E1A25A)
Complete name               : Z:\HD\War and Peace (HDTVRip l 720p l Jaskier)\War.And.Peace.1x01.720p.HDTV.x264-JASKiER.mkv
Format                      : Matroska
Format version              : Version 1
File size                   : 1.37 GiB
Duration                    : 58mn 52s
Overall bit rate            : 3 340 Kbps
Encoded date                : UTC 2016-01-13 23:39:37
Writing application         : mkvmerge v2.3.0 ('Freak U') built on Sep  8 2008 18:32:16
Writing library             : Stupid Ocelot
Video
ID                          : 1
Format                      : AVC
Format/Info                 : Advanced Video Codec
Format profile              : High@L4.1
Format settings, CABAC      : Yes
Format settings, ReFrames   : 5 frames
Codec ID                    : V_MPEG4/ISO/AVC
Duration                    : 58mn 52s
Bit rate                    : 2 889 Kbps
Width                       : 1 280 pixels
Height                      : 692 pixels
Display aspect ratio        : 1.85:1
Frame rate mode             : Constant
Frame rate                  : 25.000 fps
Color space                 : YUV
Chroma subsampling          : 4:2:0
Bit depth                   : 8 bits
Scan type                   : Progressive
Bits/(Pixel*Frame)          : 0.130
Stream size                 : 1.19 GiB (87%)
Writing library             : x264 core 148 r2638 7599210
Encoding settings           : cabac=1 / ref=5 / deblock=1:0:0 / analyse=0x3:0x113 / me=umh / subme=8 / psy=1 / psy_rd=1.00:0.00 / mixed_ref=1 / me_range=16 / chroma_me=1 / trellis=1 / 8x8dct=1 / cqm=0 / deadzone=21,11 / fast_pskip=1 / chroma_qp_offset=-2 / threads=18 / lookahead_threads=3 / sliced_threads=0 / nr=0 / decimate=1 / interlaced=0 / bluray_compat=0 / constrained_intra=0 / bframes=3 / b_pyramid=2 / b_adapt=2 / b_bias=0 / direct=3 / weightb=1 / open_gop=0 / weightp=2 / keyint=250 / keyint_min=25 / scenecut=40 / intra_refresh=0 / rc_lookahead=50 / rc=crf / mbtree=1 / crf=18.0 / qcomp=0.60 / qpmin=0 / qpmax=69 / qpstep=4 / ip_ratio=1.40 / aq=1:1.00
Language                    : English
Default                     : Yes
Forced                      : No
Color range                 : Limited
Matrix coefficients         : BT.709
Audio #1
ID                          : 2
Format                      : AC-3
Format/Info                 : Audio Coding 3
Mode extension              : CM (complete main)
Format settings, Endianness : Big
Codec ID                    : A_AC3
Duration                    : 58mn 52s
Bit rate mode               : Constant
Bit rate                    : 192 Kbps
Channel(s)                  : 2 channels
Channel positions           : Front: L R
Sampling rate               : 48.0 KHz
Compression mode            : Lossy
Delay relative to video     : -80ms
Stream size                 : 80.9 MiB (6%)
Language                    : Russian
Default                     : Yes
Forced                      : No
Audio #2
ID                          : 3
Format                      : AC-3
Format/Info                 : Audio Coding 3
Mode extension              : CM (complete main)
Format settings, Endianness : Big
Codec ID                    : A_AC3
Duration                    : 58mn 52s
Bit rate mode               : Constant
Bit rate                    : 192 Kbps
Channel(s)                  : 2 channels
Channel positions           : Front: L R
Sampling rate               : 48.0 KHz
Compression mode            : Lossy
Delay relative to video     : -80ms
Stream size                 : 80.9 MiB (6%)
Language                    : English
Default                     : No
Forced                      : No

Скриншоты

Внимание! Раздача ведётся путём добавления новых серий.

Внимание! Раздача ведётся путём добавления новых серий; при каждом добавлении создётся новый торрент. Чтобы начать докачку новой серии, пользователям необходимо сделать следующее:
  • Остановить скачивание.
  • Удалить старый торрент у себя из клиента (старые серии удалять не надо).
  • Скачать новый торрент и запустить его у себя в клиенте вместо старого, при этом указать клиенту путь в старую папку куда и должно происходить скачивание новых серий.
    Ваш клиент при этом должен произвести хеширование (проверку) старой папки (если не производит сам - помогите ему сделать это), и будет докачивать только те серии которых у вас ещё нет. Старые серии при этом не удаляются, а продолжают раздаваться!
    Eсли вы уже удалили старые серии, то предотвратить повторную закачку старых серий можно, отжав галочку в соответсвующих местах при запуске нового торрента. По возможности, желательно не удалять старые серии как можно дольше чтобы релизёр не столько продолжал раздавать старые серии, а смог сконцентрироваться на новых.

Ссылка на предыдущие и альтернативные раздачи

Вне форума [Профиль] [ЛС]
Похожие темы
Форум Тема Автор Торрент Отв. Посл. сообщение
./templates/default/images/folder_dl.gif Философия, Религия, Эзотерика Ноомахия - Дугин А.Г. - Ноомахия. Войны ума. Логос Европы. Иранский Логос. Световая война и культура ожидания. [2016, PDF/DjVu, RUS] Omen
1 | 0

0 | 1392

1

2016-10-09 01:00
Omen Последнее
Показать сообщения:    
Ответить на тему

Текущее время: Сегодня 04:09

Часовой пояс: GMT + 3



Вы не можете начинать темы
Вы не можете отвечать на сообщения
Вы не можете редактировать свои сообщения
Вы не можете удалять свои сообщения
Вы не можете голосовать в опросах
Вы не можете прикреплять файлы к сообщениям
Вы не можете скачивать файлы