Сегодня идет свободное скачивание без начисления Download

Чисто английские убийства / Midsomer Murders / Сезон: 18 / Серии: 1-3 из 6 (Alex Pillai) [2016, Детектив, HDTV 720p] Original + Rus Subs (wdata)

Ответить на тему
 
Автор
Сообщение

Omen ®

Стаж: 5 лет 7 месяцев

Сообщений: 185427

Торрент-статистика

Пост 03-Фев-2016 00:00

[Цитировать]

Чисто английские убийства / Midsomer Murders
Год выпуска: 2016
Страна: Англия
Жанр: Детектив
Продолжительность: 1:28
Перевод: Субтитры wdata
Режиссёр: Alex Pillai, Renny Rye, Rob Evans etc.
В ролях: Neil Dudgeon, Gwilym Lee, Fiona Dolman, Manjinder Virk
Описание: Чисто английский сериал по чисто английским романам Каролины Грэм. От перемены мест слагаемых сумма английского детектива не меняется, и время не властно над истинными ценностями. Чопорные островитяне по-прежнему совершают самые изощренные преступления, за ними с самым обстоятельным и почтительным видом следуют элегантные сыщики, а фоном для этих сдержанных страстей остаются зеленые лужайки и тенистые аллеи, сумрачные кабинеты и холодные спальни. Почти все действие происходит в деревнях небольшого, образцово безмятежного графства Мидсомер. Иной раз на этом пасторальном фоне происходит такое, чего и в столицах не видывали. А службу, которая опасна и трудна, деревенские полицейские не выбирают.
Сэмпл: http://wdata.me/mms18e01.mkv
Качество: HDTV 720p
Контейнер: MKV
Видео: h264, 1280x720, 16:9, 25.0 fps, 3124 kbps
Аудио: Английский, AC-3, 48.0 kHz, 2 ch, 384 kbps
Субтитры: русские

Список серий

1. Habeas Corpus
2. Инцидент в Купер Хилл
3. Разрывая цепь
02.02.2016: Добавлена тертья серия.

MediaInfo

General
Unique ID : 2378094071969754560419041565044808493 (0x1CA011713B8AA5B75027D1F6D9E9B2D)
Complete name : Midsomer.Murders.S18E01.720p.mkv
Format : Matroska
Format version : Version 4 / Version 2
File size : 1.97 GiB
Duration : 1h 28mn
Overall bit rate : 3 186 Kbps
Encoded date : UTC 2016-01-09 16:02:46
Writing application : mkvmerge v7.6.0 ('Garden of Dreams') 64bit built on Aug 9 2015 17:36:34
Writing library : libebml v1.3.3 + libmatroska v1.4.4
DURATION : 01:27:05.322000000
NUMBER_OF_FRAMES : 1201
NUMBER_OF_BYTES : 75836
_STATISTICS_WRITING_APP : mkvmerge v7.6.0 ('Garden of Dreams') 64bit built on Aug 9 2015 17:36:34
_STATISTICS_WRITING_DATE_UTC : 2016-01-09 16:02:46
_STATISTICS_TAGS : BPS DURATION NUMBER_OF_FRAMES NUMBER_OF_BYTES
Video
ID : 1
Format : AVC
Format/Info : Advanced Video Codec
Format profile : High@L4.1
Format settings, CABAC : Yes
Format settings, ReFrames : 5 frames
Codec ID : V_MPEG4/ISO/AVC
Duration : 1h 28mn
Bit rate : 2 738 Kbps
Width : 1 280 pixels
Height : 720 pixels
Display aspect ratio : 16:9
Frame rate mode : Constant
Frame rate : 25.000 fps
Color space : YUV
Chroma subsampling : 4:2:0
Bit depth : 8 bits
Scan type : Progressive
Bits/(Pixel*Frame) : 0.119
Stream size : 1.69 GiB (86%)
Writing library : x264 core 148 r2638 7599210
Encoding settings : cabac=1 / ref=5 / deblock=1:0:0 / analyse=0x3:0x113 / me=umh / subme=8 / psy=1 / psy_rd=1.00:0.00 / mixed_ref=1 / me_range=16 / chroma_me=1 / trellis=1 / 8x8dct=1 / cqm=0 / deadzone=21,11 / fast_pskip=1 / chroma_qp_offset=-2 / threads=12 / lookahead_threads=2 / sliced_threads=0 / nr=0 / decimate=1 / interlaced=0 / bluray_compat=0 / constrained_intra=0 / bframes=3 / b_pyramid=2 / b_adapt=2 / b_bias=0 / direct=3 / weightb=1 / open_gop=0 / weightp=2 / keyint=250 / keyint_min=25 / scenecut=40 / intra_refresh=0 / rc_lookahead=50 / rc=crf / mbtree=1 / crf=18.0 / qcomp=0.60 / qpmin=0 / qpmax=69 / qpstep=4 / ip_ratio=1.40 / aq=1:1.00
Language : English
Default : Yes
Forced : No
Audio
ID : 2
Format : AC-3
Format/Info : Audio Coding 3
Mode extension : CM (complete main)
Format settings, Endianness : Big
Codec ID : A_AC3
Duration : 1h 28mn
Bit rate mode : Constant
Bit rate : 384 Kbps
Channel(s) : 2 channels
Channel positions : Front: L R
Sampling rate : 48.0 KHz
Bit depth : 16 bits
Compression mode : Lossy
Stream size : 243 MiB (12%)
Language : English
Default : Yes
Forced

Скриншоты



Раздача будет вестись путем добавления новых серий.

Внимание! Раздача ведётся путём добавления новых серий; при каждом добавлении создаётся новый торрент. Чтобы начать докачку новой серии, пользователям необходимо сделать следующее:
(1) остановить скачивание,
(2) удалить старый торрент у себя из клиента (старые серии удалять не надо),
(3) скачать новый торрент и запустить его у себя в клиенте вместо старого, при этом указать клиенту путь в старую папку куда и должно происходить скачивание новых серий.
Ваш клиент при этом должен произвести хеширование (проверку) старой папки (если не производит сам - помогите ему сделать это), и будет докачивать только те серии которых у вас ещё нет. Старые серии при этом не удаляются, а продолжают раздаваться!
Eсли вы уже удалили старые серии, то предотвратить повторную закачку старых серий можно, отжав галочку в соответствующих местах при запуске нового торрента. По возможности, желательно не удалять старые серии как можно дольше чтобы релизёр не столько продолжал раздавать старые серии, а смог сконцентрироваться на новых.

Как достать субтитры из mkv

Способ первый, увлекательный:
Необходимо скачать пакет mkvtoolnix и воспользоваться программами mkvinfo и mkvextract.
Сначала программой mkvinfo определяем дорожку субтитров:
Код:
# mkvinfo midsomer.murders.s14e01.Death.In.A.Slow.Lane.720p.mkv
+ EBML head
|+ Doc type: matroska
|+ Doc type version: 2
|+ Doc type read version: 2
+ Segment, size 2345940756
|+ Seek head (subentries will be skipped)
|+ EbmlVoid (size: 4027)
|+ Segment information
| + Timecode scale: 1000000
| + Muxing application: libebml v0.8.0 + libmatroska v0.9.0
| + Writing application: mkvmerge v3.3.0 ('Language') built on Mar 24 2010 14:59:24
| + Duration: 5371.104s (01:29:31.104)
| + Date: Sat Apr  2 18:52:25 2011 UTC
| + Segment UID: 0x86 0x34 0x14 0xed 0x3b 0x4a 0x26 0xdc 0xac 0x87 0x0e 0x6d 0x04 0x8c 0x4c 0xb8
|+ Segment tracks
| + A track
|  + Track number: 1
|  + Track UID: 3055670169
|  + Track type: video
|  + Enabled: 1
|  + Default flag: 1
|  + Forced flag: 0
|  + Lacing flag: 0
|  + MinCache: 1
|  + Timecode scale: 1
|  + Max BlockAddition ID: 0
|  + Codec ID: V_MPEG4/ISO/AVC
|  + Codec decode all: 1
|  + CodecPrivate, length 41
|  + Default duration: 40.000ms (25.000 fps for a video track)
|  + Language: und
|  + Video track
|   + Pixel width: 1280
|   + Pixel height: 720
|   + Interlaced: 0
|   + Display width: 1280
|   + Display height: 720
| + A track
|  + Track number: 2
|  + Track UID: 948424351
|  + Track type: audio
|  + Enabled: 1
|  + Default flag: 1
|  + Forced flag: 0
|  + Lacing flag: 1
|  + MinCache: 0
|  + Timecode scale: 1
|  + Max BlockAddition ID: 0
|  + Codec ID: A_AC3
|  + Codec decode all: 1
|  + Default duration: 32.000ms (31.250 fps for a video track)
|  + Language: eng
|  + Audio track
|   + Sampling frequency: 48000
|   + Channels: 2
| + A track
|  + Track number: 3
|  + Track UID: 4059992969
|  + Track type: subtitles
|  + Enabled: 1
|  + Default flag: 1
|  + Forced flag: 0
|  + Lacing flag: 0
|  + MinCache: 0
|  + Timecode scale: 1
|  + Max BlockAddition ID: 0
|  + Codec ID: S_TEXT/UTF8
|  + Codec decode all: 1
|  + Language: rus
| + A track
|  + Track number: 4
|  + Track UID: 1877021267
|  + Track type: subtitles
|  + Enabled: 1
|  + Default flag: 0
|  + Forced flag: 0
|  + Lacing flag: 0
|  + MinCache: 0
|  + Timecode scale: 1
|  + Max BlockAddition ID: 0
|  + Codec ID: S_TEXT/UTF8
|  + Codec decode all: 1
|  + Language: eng
|+ EbmlVoid (size: 1024)
|+ Cluster
[/spoiler]
Как видно, дорожка русских субтитров идет под номером 3. После этого делаем:
[code]
#mkvextract tracks midsomer.murders.s14e01.Death.In.A.Slow.Lane.720p.mkv 3:subtitles.srt
[/code]
И получаем в файле subtitles.srt наши субтитры.
Способ второй, простой:
Идем на addic7ed и скачиваем субтитры там.
Вне форума [Профиль] [ЛС]
Показать сообщения:    
Ответить на тему

Текущее время: Сегодня 14:39

Часовой пояс: GMT + 3



Вы не можете начинать темы
Вы не можете отвечать на сообщения
Вы не можете редактировать свои сообщения
Вы не можете удалять свои сообщения
Вы не можете голосовать в опросах
Вы не можете прикреплять файлы к сообщениям
Вы не можете скачивать файлы