Сегодня идет свободное скачивание без начисления Download

Гримм / Grimm / Сезон: 5 / Серии: 1-7 из 22 (Норберто Барба, Терренс О’Хара, Стивен ДеПол,) [2015, ужасы, фэнтези, драма, детектив, WEBDL 720p] MVO (LostFilm) + Original + Subs (Eng)

Ответить на тему
 
Автор
Сообщение

Omen ®

Стаж: 5 лет 10 месяцев

Сообщений: 184329

Торрент-статистика

Пост 02-Фев-2016 21:00

[Цитировать]

-Гримм / Grimm
- Год выпуска: 2015
Страна: США
Жанр: ужасы, фэнтези, драма, детектив.
Продолжительность: ~00:45:00-Перевод: Профессиональный (многоголосый закадровый) LostFilm.
Режиссёр: Норберто Барба, Терренс О’Хара, Стивен ДеПол.-В ролях: Дэвид Джунтоли, Сайлас Уэйр Митчелл, Расселл Хорнсби, Саша Ройз, Регги Ли, Клэр Коффи, Бри Тёрнер, Роберт Бланш, Дэнни Бруно.-Описание:
Действие происходит в современном Портленде, где детектив из отдела убийств узнаёт, что он является потомком группы охотников, известных как «Гриммы», которые сражаются, чтобы сохранить человечество в безопасности от сверхъестественных существ. Узнав о своей судьбе, и том, что он является последним из своего рода, он должен защитить каждую живую душу от зловещих персонажей сборника сказок, которые проникли в реальный мир.-Доп. Информация:
Девиз сериала: «Not your usual suspects.»
Релиз От:
by k-marat-s
  • Дорожка №1 получена наложением выделенного голоса на центр оригинала.
  • Работа со звуком - k-marat-s.-Качество: WEB-DL 720p
    Контейнер: MKV-Видео: 1280x720 at 23.976 fps, MPEG-4 AVC, ~3840 kbps avg
    Аудио#1: Russian: 48 kHz, AC3, 3/2 (L,C,R,l,r) + LFE ch, ~384.00 kbps avg |Многоголосый закадровый, LostFilm|
    Аудио#2: English: 48 kHz, AC3, 3/2 (L,C,R,l,r) + LFE ch, ~384.00 kbps avg
    Субтитры: softsub English (SRT).

Список серий

  • 01. The Grimm Identity/Идентификация Гримма.
  • 02. Clear and Wesen Danger.
  • 03. Lost Boys.
  • 04. Maiden Quest.
  • 05. Rat King.
  • 06. Wesen Nacht
  • 07. Eve of Destruction

MediaInfo

Код:
General
Unique ID                                : 250290738705345067063729461650464298352 (0xBC4C3E2B41AD20219F10AABA6FADD570)
Complete name                            : Q:\!СЕРИАЛЫ!\ГРИММ\Grimm.S05.720p.WEB-DL.Rus.Eng.HDCLUB\Grimm.S05E01.720p.WEB-DL.Rus.Eng.HDCLUB.mkv
Format                                   : Matroska
Format version                           : Version 4 / Version 2
File size                                : 1.43 GiB
Duration                                 : 42mn 58s
Overall bit rate                         : 4 769 Kbps
Movie name                               : Grimm 5x01 (2015) - Release kmarats for HDCLUB
Encoded date                             : UTC 2015-11-13 13:52:24
Writing application                      : mkvmerge v7.9.0 ('Birds') 64bit
Writing library                          : libebml v1.3.1 + libmatroska v1.4.2
Video
ID                                       : 1
Format                                   : AVC
Format/Info                              : Advanced Video Codec
Format profile                           : High@L3.1
Format settings, CABAC                   : No
Format settings, ReFrames                : 2 frames
Codec ID                                 : V_MPEG4/ISO/AVC
Duration                                 : 42mn 58s
Bit rate                                 : 3 906 Kbps
Width                                    : 1 280 pixels
Height                                   : 720 pixels
Display aspect ratio                     : 16:9
Frame rate mode                          : Constant
Frame rate                               : 23.976 fps
Color space                              : YUV
Chroma subsampling                       : 4:2:0
Bit depth                                : 8 bits
Scan type                                : Progressive
Bits/(Pixel*Frame)                       : 0.177
Stream size                              : 1.17 GiB (82%)
Title                                    : Grimm 5x01 (2015) - Release kmarats for HDCLUB
Language                                 : English
Default                                  : Yes
Forced                                   : No
Color range                              : Limited
Color primaries                          : BT.709
Transfer characteristics                 : BT.709
Matrix coefficients                      : BT.709
Audio #1
ID                                       : 2
Format                                   : AC-3
Format/Info                              : Audio Coding 3
Mode extension                           : CM (complete main)
Format settings, Endianness              : Big
Codec ID                                 : A_AC3
Duration                                 : 42mn 58s
Bit rate mode                            : Constant
Bit rate                                 : 384 Kbps
Channel(s)                               : 6 channels
Channel positions                        : Front: L C R, Side: L R, LFE
Sampling rate                            : 48.0 KHz
Compression mode                         : Lossy
Stream size                              : 118 MiB (8%)
Title                                    : LostFilm
Language                                 : Russian
Default                                  : Yes
Forced                                   : No
Audio #2
ID                                       : 3
Format                                   : AC-3
Format/Info                              : Audio Coding 3
Mode extension                           : CM (complete main)
Format settings, Endianness              : Big
Codec ID                                 : A_AC3
Duration                                 : 42mn 58s
Bit rate mode                            : Constant
Bit rate                                 : 384 Kbps
Channel(s)                               : 6 channels
Channel positions                        : Front: L C R, Side: L R, LFE
Sampling rate                            : 48.0 KHz
Compression mode                         : Lossy
Stream size                              : 118 MiB (8%)
Title                                    : English
Language                                 : English
Default                                  : No
Forced                                   : No
Text
ID                                       : 4
Format                                   : UTF-8
Codec ID                                 : S_TEXT/UTF8
Codec ID/Info                            : UTF-8 Plain Text
Title                                    : eng-sub
Language                                 : English
Default                                  : No
Forced                                   : No
[/spoiler]

Скриншоты

Внимание! Раздача ведётся путём добавления новых серий

Внимание! Раздача ведётся путём добавления новых серий; при каждом добавлении создаётся новый торрент. Чтобы начать докачку новой серии, пользователям необходимо сделать следующее:
(1) остановить скачивание,
(2) удалить старый торрент у себя из клиента (старые серии удалять не надо),
(3) скачать новый торрент и запустить его у себя в клиенте вместо старого, при этом указать клиенту путь в старую папку куда и должно происходить скачивание новых серий.
Ваш клиент при этом должен произвести хеширование (проверку) старой папки (если не производит сам - помогите ему сделать это), и будет докачивать только те серии которых у вас ещё нет. Старые серии при этом не удаляются, а продолжают раздаваться!
Eсли вы уже удалили старые серии, то предотвратить повторную закачку старых серий можно, отжав галочку в соответствующих местах при запуске нового торрента. По возможности, желательно не удалять старые серии как можно дольше чтобы релизёр не столько продолжал раздавать старые серии, а смог сконцентрироваться на новых.
Сэмпл | КиноПоиск | IMDB | MyShows |Все раздачи сезона
Вне форума [Профиль] [ЛС]
Показать сообщения:    
Ответить на тему

Текущее время: Сегодня 14:15

Часовой пояс: GMT + 3



Вы не можете начинать темы
Вы не можете отвечать на сообщения
Вы не можете редактировать свои сообщения
Вы не можете удалять свои сообщения
Вы не можете голосовать в опросах
Вы не можете прикреплять файлы к сообщениям
Вы не можете скачивать файлы