Сегодня идет свободное скачивание без начисления Download

Государственный секретарь / Madam Secretary / Сезон: 2 / Серии: 1-10 (22) (Morgan Freeman) [2015, политическая драма, WEB-DLRip] DVO (Kiitos)

Ответить на тему
 
Автор
Сообщение

Omen ®

Стаж: 5 лет 5 месяцев

Сообщений: 187432

Торрент-статистика

Пост 02-Фев-2016 15:03

[Цитировать]

Государственный секретарь / Madam Secretary
Год выпуска: 2015
Страна: США
Жанр: политическая драма
Продолжительность: ~44
Перевод: Любительский (двухголосый закадровый) Kiitos
Перевод: annasss, torrfan
Озвучивание: kiitos, Chertenok
Cведение: kiitos
Режиссёр: Morgan Freeman
В ролях: Теа Леони, Тимоти Дэйли, Патина Миллер, Джеффри Аренд, Эрих Берген, Кэтрин Герцер, Эван Роу, Желько Иванек, Биби Нойвирт
Описание: В центре сюжета находится Элизабет Маккорд, недавно назначенная на пост госсекретаря США. Героиня сериала ежедневно сталкивается со сложными миссиями и ведет глобальные переговоры.
Качество: WEB-DLRip
Формат: AVI
Видео: XviD,720x400 (16:9) 23.976fps 1386kbps
Аудио: RUS: MP3 48000Hz stereo 192kbps
Субтитры: есть(перевод песен см. скриншот)
Сэмпл
Добавлена 10 серия. Торрент обновлен 02.02.2016

MediaInfo

General
Format : AVI
Format/Info : Audio Video Interleave
File size : 501 MiB
Duration : 44mn 7s
Overall bit rate : 1 587 Kbps
Writing application : VirtualDubMod 1.5.10.2 (build 2540/release)
Writing library : VirtualDubMod build 2540/release
Video
ID : 0
Format : MPEG-4 Visual
Format profile : Advanced Simple@L5
Format settings, BVOP : 2
Format settings, QPel : No
Format settings, GMC : No warppoints
Format settings, Matrix : Default (MPEG)
Codec ID : XVID
Codec ID/Hint : XviD
Duration : 44mn 7s
Bit rate : 1 386 Kbps
Width : 720 pixels
Height : 400 pixels
Display aspect ratio : 16:9
Frame rate : 23.976 fps
Color space : YUV
Chroma subsampling : 4:2:0
Bit depth : 8 bits
Scan type : Progressive
Compression mode : Lossy
Bits/(Pixel*Frame) : 0.201
Stream size : 437 MiB (87%)
Writing library : XviD 73
Audio
ID : 1
Format : MPEG Audio
Format version : Version 1
Format profile : Layer 3
Mode : Joint stereo
Codec ID : 55
Codec ID/Hint : MP3
Duration : 44mn 7s
Bit rate mode : Constant
Bit rate : 192 Kbps
Channel(s) : 2 channels
Sampling rate : 48.0 KHz
Compression mode : Lossy
Stream size : 60.6 MiB (12%)
Alignment : Aligned on interleaves
Interleave, duration : 42 ms (1.00 video frame)
Interleave, preload duration : 504 ms

Внимание! Раздача ведётся путём добавления новых серий

Внимание! Раздача ведётся путём добавления новых серий; при каждом добавлении создётся новый торрент. Чтобы начать докачку новой серии, пользователям необходимо сделать следующее:
(1) остановить скачивание,
(2) удалить старый торрент у себя из клиента (старые серии удалять не надо),
(3) скачать новый торрент и запустить его у себя в клиенте вместо старого, при этом указать клиенту путь в старую папку куда и должно происходить скачивание новых серий.
Ваш клиент при этом должен произвести хеширование (проверку) старой папки (если не производит сам - помогите ему сделать это), и будет докачивать только те серии которых у вас ещё нет. Старые серии при этом не удаляются, а продолжают раздаваться!
Eсли вы уже удалили старые серии, то предотвратить повторную закачку старых серий можно, отжав галочку в соответсвующих местах при запуске нового торрента.

Скриншоты

Вне форума [Профиль] [ЛС]
Показать сообщения:    
Ответить на тему

Текущее время: Сегодня 04:45

Часовой пояс: GMT + 3



Вы не можете начинать темы
Вы не можете отвечать на сообщения
Вы не можете редактировать свои сообщения
Вы не можете удалять свои сообщения
Вы не можете голосовать в опросах
Вы не можете прикреплять файлы к сообщениям
Вы не можете скачивать файлы