Сегодня идет свободное скачивание без начисления Download

Государственный секретарь / Madam Secretary / Сезон: 2 / Серии: 1-10 (22) (Morgan Freeman) [2015, политическая драма, WEB-DL 720p] DVO (Kiitos) + Original

Ответить на тему
 
Автор
Сообщение

Omen ®

Стаж: 5 лет 6 месяцев

Сообщений: 186946

Торрент-статистика

Пост 02-Фев-2016 15:03

[Цитировать]

Государственный секретарь / Madam Secretary
Год выпуска: 2015
Страна: США
Жанр: политическая драма
Продолжительность: ~44
Перевод: Любительский (многоголосый закадровый) Kiitos
Перевод: annasss, torrfan
Озвучивание: kiitos, Chertenok
Cведение: kiitos
Режиссёр: Morgan Freeman
В ролях: Теа Леони, Тимоти Дэйли, Патина Миллер, Джеффри Аренд, Эрих Берген, Кэтрин Герцер, Эван Роу, Желько Иванек, Биби Нойвирт
Описание: В центре сюжета находится Элизабет Маккорд, недавно назначенная на пост госсекретаря США. Героиня сериала ежедневно сталкивается со сложными миссиями и ведет глобальные переговоры.
Качество: WEB-DL 720p
Контейнер: MKV
Видео: AVC,1280x720(16:9) 23.976fps 3908 kbps
Аудио 1: RUS: Dolby AC3 48000Hz 6ch 384kbps
Аудио 2: ENG: Dolby AC3 48000Hz 6ch 384kbps
Субтитры: есть(перевод песен см. скриншот)
Сэмпл
Добавлена 10 серия. Торрент обновлен 02.02.2016

MediaInfo

General
Format : Matroska
Format version : Version 4 / Version 2
File size : 1.47 GiB
Duration : 44mn 7s
Overall bit rate : 4 771 Kbps
Encoded date : UTC 2015-10-09 19:07:46
Writing application : mkvmerge v8.3.0 ('Over the Horizon') 64bit
Writing library : libebml v1.3.1 + libmatroska v1.4.2
DURATION : 00:39:34.223000000
NUMBER_OF_FRAMES : 41
NUMBER_OF_BYTES : 2182
_STATISTICS_WRITING_APP : mkvmerge v8.3.0 ('Over the Horizon') 64bit
_STATISTICS_WRITING_DATE_UTC : 2015-10-09 19:07:46
_STATISTICS_TAGS : BPS DURATION NUMBER_OF_FRAMES NUMBER_OF_BYTES
Video
ID : 1
Format : AVC
Format/Info : Advanced Video Codec
Format profile : High@L3.1
Format settings, CABAC : No
Format settings, ReFrames : 2 frames
Codec ID : V_MPEG4/ISO/AVC
Duration : 44mn 7s
Bit rate : 3 908 Kbps
Width : 1 280 pixels
Height : 720 pixels
Display aspect ratio : 16:9
Frame rate mode : Constant
Frame rate : 23.976 fps
Color space : YUV
Chroma subsampling : 4:2:0
Bit depth : 8 bits
Scan type : Progressive
Bits/(Pixel*Frame) : 0.177
Stream size : 1.20 GiB (82%)
Language : English
Default : Yes
Forced : No
Color range : Limited
Color primaries : BT.709
Transfer characteristics : BT.709
Matrix coefficients : BT.709
Audio #1
ID : 2
Format : AC-3
Format/Info : Audio Coding 3
Mode extension : CM (complete main)
Format settings, Endianness : Big
Codec ID : A_AC3
Duration : 44mn 7s
Bit rate mode : Constant
Bit rate : 384 Kbps
Channel(s) : 6 channels
Channel positions : Front: L C R, Side: L R, LFE
Sampling rate : 48.0 KHz
Bit depth : 16 bits
Compression mode : Lossy
Stream size : 121 MiB (8%)
Title : kiitos.tv
Language : Russian
Default : Yes
Forced : No
Audio #2
ID : 3
Format : AC-3
Format/Info : Audio Coding 3
Mode extension : CM (complete main)
Format settings, Endianness : Big
Codec ID : A_AC3
Duration : 44mn 7s
Bit rate mode : Constant
Bit rate : 384 Kbps
Channel(s) : 6 channels
Channel positions : Front: L C R, Side: L R, LFE
Sampling rate : 48.0 KHz
Bit depth : 16 bits
Compression mode : Lossy
Stream size : 121 MiB (8%)
Language : English
Default : No
Forced : No
Text
ID : 4
Format : UTF-8
Codec ID : S_TEXT/UTF8
Codec ID/Info : UTF-8 Plain Text
Default : Yes
Forced : No

Внимание! Раздача ведётся путём добавления новых серий

Внимание! Раздача ведётся путём добавления новых серий; при каждом добавлении создётся новый торрент. Чтобы начать докачку новой серии, пользователям необходимо сделать следующее:
(1) остановить скачивание,
(2) удалить старый торрент у себя из клиента (старые серии удалять не надо),
(3) скачать новый торрент и запустить его у себя в клиенте вместо старого, при этом указать клиенту путь в старую папку куда и должно происходить скачивание новых серий.
Ваш клиент при этом должен произвести хеширование (проверку) старой папки (если не производит сам - помогите ему сделать это), и будет докачивать только те серии которых у вас ещё нет. Старые серии при этом не удаляются, а продолжают раздаваться!
Eсли вы уже удалили старые серии, то предотвратить повторную закачку старых серий можно, отжав галочку в соответсвующих местах при запуске нового торрента.

Скриншоты

Вне форума [Профиль] [ЛС]
Показать сообщения:    
Ответить на тему

Текущее время: Сегодня 15:59

Часовой пояс: GMT + 3



Вы не можете начинать темы
Вы не можете отвечать на сообщения
Вы не можете редактировать свои сообщения
Вы не можете удалять свои сообщения
Вы не можете голосовать в опросах
Вы не можете прикреплять файлы к сообщениям
Вы не можете скачивать файлы