Сегодня идет свободное скачивание без начисления Download

Чирс / Будем здоровы / Cheers / Сезон: 2 / Серии: 1-22 (22) (Джеймс Берроуз / James Burrows) [1983, комедия, драма, WEB-DL 1080p] 2xDVO (CBS Drama, РЕН-ТВ) + Original + Sub (Eng)

Ответить на тему
 
Автор
Сообщение

Omen ®

Стаж: 5 лет 6 месяцев

Сообщений: 186946

Торрент-статистика

Пост 02-Фев-2016 12:00

[Цитировать]

Чирс / Cheers -Год выпуска: 1983
Страна: США
Студия: Paramount Pictures
Жанр: комедия, драма
Продолжительность: ~25 минут (серия)
Перевод:
  • Профессиональный (двухголосый закадровый) CBS Drama
  • Профессиональный (двухголосый закадровый) РЕН-ТВ
-Режиссёр: Джеймс Берроуз / James Burrows-В ролях: Тэд Дэнсон, Шелли Лонг, Джордж Уэндт, Риа Перлман, Джон Ратценбергер, Николас Коласанто и другие.-Роли озвучивали (РЕН-ТВ): Ольга Голованова, Владимир Антоник.-Описание: "Чирс" — это название небольшого бара в Бостоне, которым владеет Сэм "Мэйдэй" Мэлоун, бывшая звезда бейсбола. Сэм, персонал и завсегдатаи бара каждый день болтают о проблемах, смеются друг над другом, обсуждают забавные случаи из жизни. Все это, разумеется, сдобрено солидной порцией алкоголя. На шутках, юморе и дружелюбных подколках и строится весь сериал.-РЕЛИЗ ОТ: V.SERIJ2013-Спасибо #Antisnl#, Beer kolesik Drinkers за запись звука с телеканала CBS Drama, megabith555 за аудиодорожку РЕН-ТВ и v.serij2013 (т.е., мне) за сведение.-Качество: WEB-DL 1080p |NTb|
Формат: MKV
Видео кодек: H.264
Аудио кодек: AC3, AAC
Видео: H.264, 1440x1080 (4:3), 23.976 fps, ~4724 kbps, 0.127 bit/pixel
Аудио:
  • русская |CBS Drama|: AC3, 48 kHz, 2 ch, 192 kbps
    русская |РЕН-ТВ| (1-16 серии): AC3, 48 kHz, 2 ch, 192 kbps

  • английская |Оригинал|: AAC, 48 kHz, 2 ch, 192 kbps
Субтитры: английские (1-16 серии)-Сэмпл- -

Список серий

01. Power Play
02. Little Sister Don't Cha
03. Personal Business
04. Homicidal Ham
05. Sumner's Return
06. Affairs of the Heart
07. Old Flames
08. Manager Coach
09. They Called Me Mayday
10. How Do I Love Thee, Let Me Call You Back
11. Just Three Friends
12. Where There's a Will
13. Battle of the Exes
14. No Help Wanted
15. Coachie Makes Three
16. Cliff's Rocky Moment
17. Fortune and Men's Weights
18. Coach Buries a Grudge
19. Snow Job
20. Norman's Conquest
21. I'll Be Seeing You (Part 1)
22. I'll Be Seeing You (Part 2)

Media Info

Код:
General
Unique ID                      : 172220942919300147425342333113982057603 (0x81908C0EDE8EB5CEBCAF5F7404A4FC83)
Complete name                  : E:\Video\HD\Series (HD)\Cheers (HD)\Cheers Season 2 (WEB-DL 1080p)\01. Power Play.mkv
Format                         : Matroska
Format version                 : Version 4 / Version 2
File size                      : 927 MiB
Duration                       : 24mn 8s
Overall bit rate               : 5 368 Kbps
Movie name                     : Cheers Season 2 (WEB-DL | 1080p | v.serij2013)
Encoded date                   : UTC 2016-01-21 03:51:07
Writing application            : mkvmerge v8.2.0 ('World of Adventure') 32bit
Writing library                : libebml v1.3.1 + libmatroska v1.4.2
DURATION                       : 00:23:59.098000000
NUMBER_OF_FRAMES               : 251
NUMBER_OF_BYTES                : 11627
_STATISTICS_WRITING_APP        : mkvmerge v8.2.0 ('World of Adventure') 32bit
_STATISTICS_WRITING_DATE_UTC   : 2016-01-21 03:51:07
_STATISTICS_TAGS               : BPS DURATION NUMBER_OF_FRAMES NUMBER_OF_BYTES
Video
ID                             : 1
Format                         : AVC
Format/Info                    : Advanced Video Codec
Format profile                 : High@L4.0
Format settings, CABAC         : Yes
Format settings, ReFrames      : 5 frames
Codec ID                       : V_MPEG4/ISO/AVC
Duration                       : 24mn 8s
Width                          : 1 440 pixels
Height                         : 1 080 pixels
Display aspect ratio           : 4:3
Frame rate mode                : Constant
Frame rate                     : 23.976 fps
Color space                    : YUV
Chroma subsampling             : 4:2:0
Bit depth                      : 8 bits
Scan type                      : Progressive
Language                       : English
Default                        : Yes
Forced                         : No
Color primaries                : BT.709
Transfer characteristics       : BT.709
Matrix coefficients            : BT.709
Color range                    : Limited
Audio #1
ID                             : 2
Format                         : AC-3
Format/Info                    : Audio Coding 3
Mode extension                 : CM (complete main)
Format settings, Endianness    : Big
Codec ID                       : A_AC3
Duration                       : 24mn 8s
Bit rate mode                  : Constant
Bit rate                       : 192 Kbps
Channel(s)                     : 2 channels
Channel positions              : Front: L R
Sampling rate                  : 48.0 KHz
Bit depth                      : 16 bits
Compression mode               : Lossy
Stream size                    : 33.2 MiB (4%)
Title                          : DVO (CBS Drama)
Language                       : Russian
Default                        : Yes
Forced                         : No
Audio #2
ID                             : 3
Format                         : AC-3
Format/Info                    : Audio Coding 3
Mode extension                 : CM (complete main)
Format settings, Endianness    : Big
Codec ID                       : A_AC3
Duration                       : 24mn 8s
Bit rate mode                  : Constant
Bit rate                       : 192 Kbps
Channel(s)                     : 2 channels
Channel positions              : Front: L R
Sampling rate                  : 48.0 KHz
Bit depth                      : 16 bits
Compression mode               : Lossy
Stream size                    : 33.2 MiB (4%)
Title                          : DVO (РЕН-ТВ)
Language                       : Russian
Default                        : No
Forced                         : No
Audio #3
ID                             : 4
Format                         : AAC
Format/Info                    : Advanced Audio Codec
Format profile                 : LC
Codec ID                       : A_AAC
Duration                       : 24mn 8s
Channel(s)                     : 2 channels
Channel positions              : Front: L R
Sampling rate                  : 48.0 KHz
Compression mode               : Lossy
Title                          : Original
Language                       : English
Default                        : No
Forced                         : No
Text #1
ID                             : 5
Format                         : UTF-8
Codec ID                       : S_TEXT/UTF8
Codec ID/Info                  : UTF-8 Plain Text
Title                          : РЕН-ТВ (UNCUT)
Language                       : Russian
Default                        : No
Forced                         : No
Text #2
ID                             : 6
Format                         : UTF-8
Codec ID                       : S_TEXT/UTF8
Codec ID/Info                  : UTF-8 Plain Text
Title                          : Original
Language                       : English
Default                        : No
Forced                         : No
[/spoiler]
-
Вне форума [Профиль] [ЛС]
Показать сообщения:    
Ответить на тему

Текущее время: Сегодня 17:41

Часовой пояс: GMT + 3



Вы не можете начинать темы
Вы не можете отвечать на сообщения
Вы не можете редактировать свои сообщения
Вы не можете удалять свои сообщения
Вы не можете голосовать в опросах
Вы не можете прикреплять файлы к сообщениям
Вы не можете скачивать файлы