Сегодня идет свободное скачивание без начисления Download

Беовульф / Beowulf: Return to the Shieldlands / Сезон: 1 / Серии: 1-5 из 13 (Джон Ист, Джулиан Холмс, Марек Лоузи) [2016, фэнтези, боевик, драма, приключения, HDTVRip 720p] MVO (Jaskier) + Original

Ответить на тему
 
Автор
Сообщение

Omen ®

Стаж: 5 лет 6 месяцев

Сообщений: 186946

Торрент-статистика

Пост 02-Фев-2016 09:33

[Цитировать]

Беовульф | Beowulf: Return to the Shieldlands -Оригинальное название: Beowulf: Return to the Shieldlands
Русское название: Беовульф
Год выпуска: 2016
Страна: Великобритания
Жанр: фэнтези, боевик, драма, приключения
Продолжительность: ~45 минут-Перевод: Профессиональный (многоголосый закадровый) Студия Jaskier
Субтитры: Нет-Режиссёр: Джон Ист, Джулиан Холмс, Марек Лоузи-В ролях: Кирсти Освальд, Гисли Орн Гардарссон, Пабло Вердехо, Дэвид Аджала, Джои Анса, Киран Бью, Лолита Чакрабарти, Уильям Хёрт, Алекс Прайс, Иан Палстон-Дэвис и др.-Описание: Спустя долгие двадцать лет, проведённых в странствованиях и жестоких сражениях, отважный воин-наёмник Беофульф возвращается в Хеорот, чтобы выразить своё почтение давнему другу тану Хротгару, но с прискорбием узнает, что тот недавно скончался.
Через некоторое время в городе происходит загадочное событие — одного из лучших воинов находят жестоко убитым. Беовульф, чувствуя вину за то, что не успел отдать должное Хротгару при жизни, клянётся защитить город и во что бы то ни стало найти убийцу. В тот момент наш герой даже не догадывается, что ему придется столкнуться с невероятно сильным кровожадным монстром, люто ненавидящим людей.-Сэмпл-Качество: HDTV 720p
Формат: MKV
Видео кодек: AVC
Аудио кодек: AC3
Видео: AVC, 1280x720 (16:9), 25.000 fps, ~3448 kbps, ~0.122 bit/pixel-Аудио 1: Dolby AC3, 48 kHz, 2 ch, 192 kbps Русский
Аудио 2: Dolby AC3, 48 kHz, 2 ch, 192 kbps Оригинал (Английский)-

MediaInfo

Код:
General
Unique ID                                : 243119253690201919639043050404722420411 (0xB6E710A8AEF0286A8510C6F26CE6AABB)
Complete name                            : G:\Movies\Сериалы\Beowulf - Return to the Shield Lands. Season 1 (HDTV l 720p l Jaskier)\Beowulf.Return.to.the.Shieldlands.S01E01.720p.HDTV.Jaskier.Rus.Eng.mkv
Format                                   : Matroska
Format version                           : Version 4 / Version 2
File size                                : 1.07 GiB
Duration                                 : 44mn 19s
Overall bit rate                         : 3 448 Kbps
Encoded date                             : UTC 2016-01-12 20:48:20
Writing application                      : mkvmerge v7.8.0 ('River Man') 64bit built on Mar 27 2015 16:31:37
Writing library                          : libebml v1.3.1 + libmatroska v1.4.2
DURATION                                 : 00:44:19.744000000
NUMBER_OF_FRAMES                         : 83117
NUMBER_OF_BYTES                          : 63833856
_STATISTICS_WRITING_APP                  : mkvmerge v7.8.0 ('River Man') 64bit built on Mar 27 2015 16:31:37
_STATISTICS_WRITING_DATE_UTC             : 2016-01-12 20:48:20
_STATISTICS_TAGS                         : BPS DURATION NUMBER_OF_FRAMES NUMBER_OF_BYTES
Video
ID                                       : 1
Format                                   : AVC
Format/Info                              : Advanced Video Codec
Format profile                           : High@L4.1
Format settings, CABAC                   : Yes
Format settings, ReFrames                : 5 frames
Codec ID                                 : V_MPEG4/ISO/AVC
Duration                                 : 44mn 19s
Bit rate                                 : 2 803 Kbps
Width                                    : 1 280 pixels
Height                                   : 720 pixels
Display aspect ratio                     : 16:9
Frame rate mode                          : Constant
Frame rate                               : 25.000 fps
Color space                              : YUV
Chroma subsampling                       : 4:2:0
Bit depth                                : 8 bits
Scan type                                : Progressive
Bits/(Pixel*Frame)                       : 0.122
Stream size                              : 889 MiB (81%)
Writing library                          : x264 core 148 r2638 7599210
Encoding settings                        : cabac=1 / ref=5 / deblock=1:0:0 / analyse=0x3:0x113 / me=umh / subme=8 / psy=1 / psy_rd=1.00:0.00 / mixed_ref=1 / me_range=16 / chroma_me=1 / trellis=1 / 8x8dct=1 / cqm=0 / deadzone=21,11 / fast_pskip=1 / chroma_qp_offset=-2 / threads=12 / lookahead_threads=2 / sliced_threads=0 / nr=0 / decimate=1 / interlaced=0 / bluray_compat=0 / constrained_intra=0 / bframes=3 / b_pyramid=2 / b_adapt=2 / b_bias=0 / direct=3 / weightb=1 / open_gop=0 / weightp=2 / keyint=250 / keyint_min=25 / scenecut=40 / intra_refresh=0 / rc_lookahead=50 / rc=crf / mbtree=1 / crf=18.0 / qcomp=0.60 / qpmin=0 / qpmax=69 / qpstep=4 / ip_ratio=1.40 / aq=1:1.00
Language                                 : English
Default                                  : Yes
Forced                                   : No
Audio #1
ID                                       : 2
Format                                   : AC-3
Format/Info                              : Audio Coding 3
Mode extension                           : CM (complete main)
Format settings, Endianness              : Big
Codec ID                                 : A_AC3
Duration                                 : 44mn 19s
Bit rate mode                            : Constant
Bit rate                                 : 192 Kbps
Channel(s)                               : 2 channels
Channel positions                        : Front: L R
Sampling rate                            : 48.0 KHz
Bit depth                                : 16 bits
Compression mode                         : Lossy
Stream size                              : 60.9 MiB (6%)
Title                                    : RUS (Jaskier)
Language                                 : Russian
Default                                  : Yes
Forced                                   : No
Audio #2
ID                                       : 3
Format                                   : AC-3
Format/Info                              : Audio Coding 3
Mode extension                           : CM (complete main)
Format settings, Endianness              : Big
Codec ID                                 : A_AC3
Duration                                 : 44mn 19s
Bit rate mode                            : Constant
Bit rate                                 : 384 Kbps
Channel(s)                               : 2 channels
Channel positions                        : Front: L R
Sampling rate                            : 48.0 KHz
Bit depth                                : 16 bits
Compression mode                         : Lossy
Stream size                              : 122 MiB (11%)
Title                                    : ENG
Language                                 : English
Default                                  : No
Forced                                   : No

Скриншоты

Внимание! Раздача ведётся путём добавления новых серий.

Внимание! Раздача ведётся путём добавления новых серий; при каждом добавлении создётся новый торрент. Чтобы начать докачку новой серии, пользователям необходимо сделать следующее:
  • Остановить скачивание.
  • Удалить старый торрент у себя из клиента (старые серии удалять не надо).
  • Скачать новый торрент и запустить его у себя в клиенте вместо старого, при этом указать клиенту путь в старую папку куда и должно происходить скачивание новых серий.
    Ваш клиент при этом должен произвести хеширование (проверку) старой папки (если не производит сам - помогите ему сделать это), и будет докачивать только те серии которых у вас ещё нет. Старые серии при этом не удаляются, а продолжают раздаваться!
    Eсли вы уже удалили старые серии, то предотвратить повторную закачку старых серий можно, отжав галочку в соответсвующих местах при запуске нового торрента. По возможности, желательно не удалять старые серии как можно дольше чтобы релизёр не столько продолжал раздавать старые серии, а смог сконцентрироваться на новых.

Ссылка на предыдущие и альтернативные раздачи

Вне форума [Профиль] [ЛС]
Показать сообщения:    
Ответить на тему

Текущее время: Сегодня 18:33

Часовой пояс: GMT + 3



Вы не можете начинать темы
Вы не можете отвечать на сообщения
Вы не можете редактировать свои сообщения
Вы не можете удалять свои сообщения
Вы не можете голосовать в опросах
Вы не можете прикреплять файлы к сообщениям
Вы не можете скачивать файлы