Сегодня идет свободное скачивание без начисления Download

Новенькая / New Girl / Сезон: 5 / Серии: 1-3 серии из 22 из 22 (Джейк Кэздан, Макс Уинклер, Фред Госс) [2016, Комедия, WEB-DLRip] DVO (Ozz)

Ответить на тему
 
Автор
Сообщение

Omen ®

Стаж: 5 лет 7 месяцев

Сообщений: 185412

Торрент-статистика

Пост 02-Фев-2016 03:03

[Цитировать]

Новенькая / New Girl- Год выпуска: 2016
Страна: США
Жанр: Комедия
Продолжительность: 00:23:30-Перевод: Профессиональный (двухголосый закадровый) - Ozz-Режиссёр: Джейк Кэздан, Макс Уинклер, Фред Госс-В ролях: Зои Дешанель, Дэймон Уайанс мл., Джейк Джонсон, Джиллиан Вигмэн, Ханна Симона, Макс Гринфилд, Мэри Элизабет Эллис, Стив Баннос, Хейли Норман, Джек Янг-- --Комедия о сексуальных отношениях мужчин и женщин. В центре сюжета — Джессика, оптимистичная, но несчастная в любви учительница начальной школы, которая после последнего разрыва въезжает в квартиру, где уже живут три парня.--
Роли озвучивали: Алексей Серёгин и Елена Каламурза
Перевод: Василий Мерзляков-Сэмпл-Качество: WEB-DLRip
Формат: AVI
Видео: 720x400 (16:9), 23,976 fps, 1823 Kbps, 0.264 bit/pixel
Аудио: 44.1 kHz, MP3, 2 ch, 128 Kbps
Субтитры: отсутствуют

Список серий

1. Big Mama P
2. What About Fred
3. Jury Duty

MediaInfo

General
Format : AVI
Format/Info : Audio Video Interleave
File size : 304 MiB
Duration : 21mn 42s
Overall bit rate : 1 960 Kbps
Writing application : VirtualDubMod 1.5.10.2 (build 2540/release)
Writing library : VirtualDubMod build 2540/release
Video #0
ID : 0
Format : MPEG-4 Visual
Format profile : Simple@L1
Format settings, BVOP : No
Format settings, QPel : No
Format settings, GMC : No warppoints
Format settings, Matrix : Default (H.263)
Codec ID : XVID
Codec ID/Hint : XviD
Duration : 21mn 42s
Bit rate : 1 823 Kbps
Width : 720 pixels
Height : 400 pixels
Display aspect ratio : 16:9
Frame rate : 23.976 fps
Color space : YUV
Chroma subsampling : 4:2:0
Bit depth : 8 bits
Scan type : Progressive
Compression mode : Lossy
Bits/(Pixel*Frame) : 0.264
Stream size : 283 MiB (93%)
Writing library : Lavc57.12.100
Audio #1
ID : 1
Format : MPEG Audio
Format version : Version 1
Format profile : Layer 3
Mode : Joint stereo
Mode extension : MS Stereo
Codec ID : 55
Codec ID/Hint : MP3
Duration : 21mn 42s
Bit rate mode : Constant
Bit rate : 128 Kbps
Channel(s) : 2 channels
Sampling rate : 44.1 KHz
Compression mode : Lossy
Stream size : 19.9 MiB (7%)
Alignment : Split accross interleaves
Interleave, duration : 42 ms (1.00 video frame)
Interleave, preload duration : 500 ms

Скриншоты

Внимание! Раздача ведётся путём добавления новых серий:

(1) остановить скачивание,
(2) удалить старый торрент у себя из клиента (старые серии удалять не надо),
(3) скачать новый торрент и запустить его у себя в клиенте вместо старого, при этом указать клиенту путь в старую папку куда и должно происходить скачивание новых серий.
Ваш клиент при этом должен произвести хеширование (проверку) старой папки (если не производит сам - помогите ему сделать это), и будет докачивать только те серии которых у вас ещё нет. Старые серии при этом не удаляются, а продолжают раздаваться!
Eсли вы уже удалили старые серии, то предотвратить повторную закачку старых серий можно, отжав галочку в соответсвующих местах при запуске нового торрента. По возможности, желательно не удалять старые серии как можно дольше чтобы релизёр не столько продолжал раздавать старые серии, а смог сконцентрироваться на новых
.
Вне форума [Профиль] [ЛС]
Похожие темы
Форум Тема Автор Торрент Отв. Посл. сообщение
./templates/default/images/folder_dl.gif Фантастика, фэнтези, ужасы, мистика Антонов Олег Борисович - Столкновение образов [2013, PDF] OlegAlm
1 | 0

3 | 4137

2

2013-07-14 13:31
Геннадич Последнее
./templates/default/images/folder_dl.gif Обучающее видео [Учебный Центр «Специалист»] CEH. Этичный хакинг и тестирование на проникновение [2016, RUS] Omen
1 | 0

0 | 3193

15

2016-11-23 01:00
Omen Последнее
./templates/default/images/folder_dl.gif Обучающее видео Специалист | СЕН2 (ECSA) Тестирование на проникновение хакера и анализ безопасности. (2016) PCRec Omen
1 | 0

0 | 759

24

2016-12-03 01:00
Omen Последнее
Показать сообщения:    
Ответить на тему

Текущее время: Сегодня 19:51

Часовой пояс: GMT + 3



Вы не можете начинать темы
Вы не можете отвечать на сообщения
Вы не можете редактировать свои сообщения
Вы не можете удалять свои сообщения
Вы не можете голосовать в опросах
Вы не можете прикреплять файлы к сообщениям
Вы не можете скачивать файлы