Сегодня идет свободное скачивание без начисления Download

Совершенный Человек-Паук / Ultimate Spider-Man (Сезон: 1, Серии: 1-9 из 26) (Тим Элдред, Алекс Сото / Tim Eldred, Alex Soto) [2012, Мультсериал, приключения, фэнтези, WEB-DL 720p]

Ответить на тему
 
Автор
Сообщение

Meshanik ®

Пол:

Стаж: 5 лет 4 месяца

Сообщений: 5051

Откуда: Los Angeles

Торрент-статистика

Пост 16-Июл-2012 05:44

[Цитировать]

Совершенный Человек-Паук / Ultimate Spider-Man
Год выпуска: 2012
Страна: США
Жанр: Мультсериал, приключения, фэнтези
Продолжительность: ~00:22:15 на серию
Озвучивание: Любительское (двухголосое закадровое) ZM и Бобби Джек
Перевод на русский: VenZell, Aggie32
Работа со звуком: ZM, kol199523
Русские субтитры: нет

Режиссёр: Тим Элдред, Алекс Сото / Tim Eldred, Alex Soto
Роли озвучивали: Дрейк Белл, Стивен Уэбер, Дж.К. Симмонс, Чи МакБрайд, Кейтлин Тейлор Лав, Грег Сайпс, Логан Миллер, Том Кенни, Тара Стронг

Описание: «Современный Человек-Паук» - новая интерпретация приключений знаменитого супергероя Человека-паука из комиксов MARVEL, премьера которого состоялась 1 апреля 2012 года. В один прекрасный день Ник Фьюри приходит к пауку и предлагает ему обучаться по его технике. Согласился ли он? Сами посмотрите!

Качество: WEB-DL 720p
Формат: MKV
Видео кодек: MPEG-4 AVC/H.264
Аудио кодек: AC3
Видео: AVC, 1280x720, 23.976 fps, 3 835 Kbps
Аудио 1 Rus: 48 kHz, AC3 Dolby Digital, 3/2 (L,C,R,l,r) + LFE ch, ~384 kbps
Аудио 2 Eng: 48 kHz, AC3 Dolby Digital, 3/2 (L,C,R,l,r) + LFE ch, ~384 kbps
Субтитры: отсутствуют

Внимание!!! Раздача ведётся путём добавления новых серий

Внимание! Раздача ведётся путём добавления новых серий; при каждом добавлении создётся новый торрент. Чтобы начать докачку новой серии, пользователям необходимо сделать следующее:
(1) остановить скачивание
(2) удалить старый торрент у себя из клиента (старые серии удалять не надо)
(3) скачать новый торрент и запустить его у себя в клиенте вместо старого, при этом указать клиенту путь в старую папку куда и должно происходить скачивание новых серий. Ваш клиент при этом должен произвести хеширование (проверку) старой папки (если не производит сам - помогите ему сделать это), и будет докачивать только те серии, которых у вас ещё нет. Старые серии при этом не удаляются, а продолжают раздаваться! Eсли вы уже удалили старые серии, то предотвратить повторную закачку старых серий можно, отжав галочку в соответсвующих местах при запуске нового торрента.
По возможности, желательно не удалять старые серии как можно дольше, чтобы релизёр не столько продолжал раздавать старые серии, а смог сконцентрироваться на новых.

MediaInfo

D:\Ultimate Spider-Man season 1 [720p]\Ultimate.Spider-Man.S01E01.720p.WEB-DL.DD5.1.H.264[ZM-SHOW].mkv
General
Unique ID : 243014164617645361296065764173984566534 (0xB6D2D35E1BDE31C291F5B63A3D8C0D06)
Complete name : D:\Ultimate Spider-Man season 1 [720p]\Ultimate.Spider-Man.S01E01.720p.WEB-DL.DD5.1.H.264[ZM-SHOW].mkv
Format : Matroska
Format version : Version 2
File size : 744 MiB
Duration : 22mn 8s
Overall bit rate : 4 697 Kbps
Encoded date : UTC 2012-04-22 21:50:00
Writing application : mkvmerge v5.0.1 ('Es ist Sommer') built on Oct 9 2011 11:55:43
Writing library : libebml v1.2.2 + libmatroska v1.3.0
Video #1
ID : 1
Format : AVC
Format/Info : Advanced Video Codec
Format profile : [url=mailto:High@L3.1]High@L3.1[/url]
Format settings, CABAC : No
Format settings, ReFrames : 2 frames
Codec ID : V_MPEG4/ISO/AVC
Duration : 22mn 8s
Bit rate : 3 835 Kbps
Width : 1 280 pixels
Height : 720 pixels
Display aspect ratio : 16:9
Frame rate : 23.976 fps
Color space : YUV
Chroma subsampling : 4:2:0
Bit depth : 8 bits
Scan type : Progressive
Bits/(Pixel*Frame) : 0.174
Stream size : 608 MiB (82%)
Language : English
Default : Yes
Forced : No
Color primaries : BT.709-5, BT.1361, IEC 61966-2-4, SMPTE RP177
Transfer characteristics : BT.709-5, BT.1361
Matrix coefficients : BT.709-5, BT.1361, IEC 61966-2-4 709, SMPTE RP177
Audio #2
ID : 2
Format : AC-3
Format/Info : Audio Coding 3
Mode extension : CM (complete main)
Codec ID : A_AC3
Duration : 22mn 8s
Bit rate mode : Constant
Bit rate : 384 Kbps
Channel(s) : 6 channels
Channel positions : Front: L C R, Side: L R, LFE
Sampling rate : 48.0 KHz
Bit depth : 16 bits
Compression mode : Lossy
Stream size : 60.8 MiB (8%)
Title : ZM-SHOW
Language : Russian
Default : Yes
Forced : No
Audio #3
ID : 3
Format : AC-3
Format/Info : Audio Coding 3
Mode extension : CM (complete main)
Codec ID : A_AC3
Duration : 22mn 8s
Bit rate mode : Constant
Bit rate : 384 Kbps
Channel(s) : 6 channels
Channel positions : Front: L C R, Side: L R, LFE
Sampling rate : 48.0 KHz
Bit depth : 16 bits
Compression mode : Lossy
Stream size : 60.8 MiB (8%)
Language : English
Default : No
Forced : No

Скриншоты

               
Вне форума [Профиль] [ЛС]
Похожие темы
Форум Тема Автор Торрент Отв. Посл. сообщение
./templates/default/images/folder_dl.gif Обучающее видео Развитие лидерских качеств методом совершенствования / Leading with Applied Improv [2014, лидерские качества, WEBRip, ENG] (Видеоурок) Omen
4 | 0

0 | 560

11

2015-05-19 21:00
Omen Последнее
./templates/default/images/folder_dl.gif Обучающее видео Постоянное Совершенствование Инструментов / Continuous Improvement Tools [2015, бизнес-процессы, HDRip, ENG] (Видеоурок) Omen
5 | 0

0 | 400

3

2015-12-26 12:00
Omen Последнее
Показать сообщения:    
Ответить на тему

Текущее время: Сегодня 20:36

Часовой пояс: GMT + 3



Вы не можете начинать темы
Вы не можете отвечать на сообщения
Вы не можете редактировать свои сообщения
Вы не можете удалять свои сообщения
Вы не можете голосовать в опросах
Вы не можете прикреплять файлы к сообщениям
Вы не можете скачивать файлы