Сегодня идет свободное скачивание без начисления Download

Сверхъестественное / Supernatural / Сезон: 11 / Серии: 1-11 из 23 (Роберт Сингер) [2015, ужасы, фэнтези, триллер, драма, детектив, WEBDLRip] MVO [NewStudio & NovaFilm]

Ответить на тему
 
Автор
Сообщение

Omen ®

Стаж: 6 лет 1 месяц

Сообщений: 184308

Торрент-статистика

Пост 02-Фев-2016 00:00

[Цитировать]

--✦ Сверхъестественное / Supernatural ✦-- Информация о фильме:
✦ Название: Сверхъестественное
✦ Оригинальное название: Supernatural
✦ Год выхода: 2015
✦ Страна: США, CW
✦ Жанр: Ужасы, фэнтези, триллер, драма, детектив
✦ Продолжительность: серия ~ 00:43:00
✦ Перевод: Профессиональный (многоголосый, закадровый, c голосами ДУБЛЯЖА)
- NewStudio & NovaFilm-✦ Режиссер: Роберт Сингер-✦ В ролях: Джаред Падалеки, Дженсен Эклс, Джим Бивер, Миша Коллинз, Марк Шеппард, Марк Пеллегрино, Женевьев Падалеки и др.
-Описание фильма: Сериал рассказывает о приключениях братьев Сэма и Дина Винчестеров, которые путешествуют по Соединённым Штатам на чёрном автомобиле Chevrolet Impala 1967 года, расследуют паранормальные явления, многие из которых основаны на американских городских легендах и фольклоре, и сражаются с порождениями зла, такими как демоны и призраки.
В 11 сезоне охота братьев Винчестеров на сверхъестественные силы продолжается, на этот раз они должны противостоять Тьме, которая оказалась на свободе, благодаря Сэму и Дину. Кастиэль оказывается под влиянием заклинания Ровены и готовится к смертельной битве с королем ада Кроули.

Доп. информация: Рекламный видео ролик вырезан.--✦ Релиз: & ---- --Информация о файле:
✦ Качество: WEBDLRip
✦ Формат: AVI
✦ Видео: MPEG4, XviD, 720x400 (16:9), 23.976 fps, 1 407 Kbps (0.204 bit/pixel)
✦ Аудио RU: AC-3, 48.0 KHz, 2 ch, 192 Kbps, CBR
✦ Субтитры: отсутствуют

✔ MediaInfo

Код:
F:\P.N.L\Supernatural (S11) NewStudio + NovaFiLM\supernatural.s11e01.webdl.rus.newstudio.tv.novafilm.avi
General
Complete name : F:\P.N.L\Supernatural (S11) NewStudio + NovaFiLM\supernatural.s11e01.webdl.rus.newstudio.tv.novafilm.avi
Format : AVI
Format/Info : Audio Video Interleave
File size : 489 MiB
Duration : 42mn 29s
Overall bit rate : 1 609 Kbps
Writing application : VirtualDubMod 1.5.10.2 (build 2540/release)
Writing library : VirtualDub build 35491/release
Video #0
ID : 0
Format : MPEG-4 Visual
Format profile : Advanced Simple@L5
Format settings, BVOP : 2
Format settings, QPel : No
Format settings, GMC : No warppoints
Format settings, Matrix : Default (MPEG)
Codec ID : XVID
Codec ID/Hint : XviD
Duration : 42mn 29s
Bit rate : 1 407 Kbps
Width : 720 pixels
Height : 400 pixels
Display aspect ratio : 16:9
Frame rate : 23.976 fps
Color space : YUV
Chroma subsampling : 4:2:0
Bit depth : 8 bits
Scan type : Progressive
Compression mode : Lossy
Bits/(Pixel*Frame) : 0.204
Stream size : 428 MiB (87%)
Writing library : XviD 73
Audio #1
ID : 1
Format : AC-3
Format/Info : Audio Coding 3
Mode extension : CM (complete main)
Format settings, Endianness : Big
Codec ID : 2000
Duration : 42mn 29s
Bit rate mode : Constant
Bit rate : 192 Kbps
Channel(s) : 2 channels
Channel positions : Front: L R
Sampling rate : 48.0 KHz
Bit depth : 16 bits
Compression mode : Lossy
Delay relative to video : 17ms
Stream size : 58.3 MiB (12%)
Alignment : Split accross interleaves
Interleave, duration : 42 ms (1.00 video frame)
Interleave, preload duration : 500 ms

✔ Скриншоты


✔ Раздача ведется путем добавления новых серий

Когда раздача ведётся путём добавления новых серий, при каждом добавлении создётся новый торрент. Чтобы начать докачку новой серии, пользователям необходимо сделать следующее:
(1) остановить скачивание,
(2) удалить старый торрент у себя из клиента (старые серии удалять не надо),
(3) скачать новый торрент и запустить его у себя в клиенте вместо старого, при этом указать клиенту путь в старую папку, куда и должно происходить скачивание новых серий.
Ваш клиент при этом должен произвести хеширование (проверку) старой папки (если не производит сам - помогите ему сделать это), и будет докачивать только те серии, которых у вас ещё нет. Старые серии при этом не удаляются, а продолжают раздаваться!
Eсли вы уже удалили старые серии, то предотвратить повторную закачку старых серий можно, отжав галочку в соответсвующих местах при запуске нового торрента. По возможности, желательно не удалять старые серии как можно дольше, чтобы релизёр не столько продолжал раздавать старые серии, а смог сконцентрироваться на новых.
Вне форума [Профиль] [ЛС]
Показать сообщения:    
Ответить на тему

Текущее время: Сегодня 17:58

Часовой пояс: GMT + 3



Вы не можете начинать темы
Вы не можете отвечать на сообщения
Вы не можете редактировать свои сообщения
Вы не можете удалять свои сообщения
Вы не можете голосовать в опросах
Вы не можете прикреплять файлы к сообщениям
Вы не можете скачивать файлы