Сегодня идет свободное скачивание без начисления Download

Супермаркет / Trollied / Сезон: 1 / Серии: 1-4 из 8 (Пол Уолкер) [2011 г., Комедия, HDTVRip] DVO (SNK-TV) + Original + Rus Subs

Ответить на тему
 
Автор
Сообщение

Omen ®

Стаж: 5 лет 9 месяцев

Сообщений: 184402

Торрент-статистика

Пост 02-Фев-2016 00:00

[Цитировать]

Супермаркет / Trollied- Год выпуска: 2011
Страна: Великобритания
Жанр: Комедия
Продолжительность: ~23 минут-Перевод: Любительский (двухголосый закадровый) - /SNK-TV/
Субтитры: Русские (Полные, Форсированные) - /SNK-TV/, EasterEgg ; Английские-Режиссёр: Пол Уолкер
В ролях: Джейн Хоррокс, Фэй МакКивер, Марк Эдди, Ник Блад, Лоррэйн Чешир, Шанель Крессвелл, Джоэль Фрай, Карл Райс, Беверли Радд, Джейсон Уоткинс-Описание: События происходят в супермаркете Валко на северо-западе Англии. Ситком, показывающий в комичной форме обыденные ситуации. Действующий зам Джули старается утвердить свой авторитет среди сотрудников, но ей это мало удается. К тому же все её попытки произвести впечатление на управляющего магазином Гэвина проваливаются. Похоже она втюрилась в Гэвина, который пытается дать мягкий отпор в ответ на её неуклюжий флирт.-
Скачать сэмпл-Все раздачи сериала-Качество: HDTVRip
Формат: AVI
Видео кодек: Xvid
Аудио кодек: MP3
Видео: Xvid 720x400 25fps 1401kbps 0.195 bit/pixel
Аудио Rus: MP3 48000Hz stereo 128kbps
Аудио Eng: MP3 48000Hz stereo 128kbps-

Список серий

01. Margaret's First Day
02. Leanne's Visit
03. Andy's Marathon
04. Glen Beef's Beef
05. Katie's Flirting
06. Kieran's Beard
07. Gavin's Night Out
08. Julie's Interview

Скриншоты

-

Раздача ведётся путём добавления новых серий

Внимание! Раздача ведётся путём добавления новых серий; при каждом добавлении создаётся новый торрент. Чтобы начать докачку новой серии, пользователям необходимо сделать следующее:
(1) остановить скачивание,
(2) удалить старый торрент у себя из клиента (старые серии удалять не надо),
(3) скачать новый торрент и запустить его у себя в клиенте вместо старого, при этом указать клиенту путь в старую папку куда и должно происходить скачивание новых серий.
Ваш клиент при этом должен произвести хеширование (проверку) старой папки (если не производит сам - помогите ему сделать это), и будет докачивать только те серии которых у вас ещё нет. Старые серии при этом не удаляются, а продолжают раздаваться!
Eсли вы уже удалили старые серии, то предотвратить повторную закачку старых серий можно, отжав галочку в соответствующих местах при запуске нового торрента. По возможности, желательно не удалять старые серии как можно дольше чтобы релизёр не столько продолжал раздавать старые серии, а смог сконцентрироваться на новых.
-

MediaInfo

General
Complete name : W:\Торка на W\Valko\Trollied.S1\Trollied.s01e01.hdtv.SNK-TV.avi
Format : AVI
Format/Info : Audio Video Interleave
File size : 280 MiB
Duration : 23mn 27s
Overall bit rate : 1 671 Kbps
Writing application : VirtualDubModRus 1.5.10.2 (build 2542/release)
Writing library : VirtualDubMod build 2542/release
Video
ID : 0
Format : MPEG-4 Visual
Format profile : Simple@L3
Format settings, BVOP : No
Format settings, QPel : No
Format settings, GMC : No warppoints
Format settings, Matrix : Default (H.263)
Codec ID : XVID
Codec ID/Hint : XviD
Duration : 23mn 27s
Bit rate : 1 400 Kbps
Width : 720 pixels
Height : 400 pixels
Display aspect ratio : 16:9
Frame rate : 25.000 fps
Color space : YUV
Chroma subsampling : 4:2:0
Bit depth : 8 bits
Scan type : Progressive
Compression mode : Lossy
Bits/(Pixel*Frame) : 0.194
Stream size : 235 MiB (84%)
Writing library : XviD 64
Audio #1
ID : 1
Format : MPEG Audio
Format version : Version 1
Format profile : Layer 3
Mode : Joint stereo
Mode extension : MS Stereo
Codec ID : 55
Codec ID/Hint : MP3
Duration : 23mn 27s
Bit rate mode : Constant
Bit rate : 128 Kbps
Channel(s) : 2 channels
Sampling rate : 48.0 KHz
Compression mode : Lossy
Stream size : 21.5 MiB (8%)
Alignment : Aligned on interleaves
Interleave, duration : 40 ms (1.00 video frame)
Interleave, preload duration : 504 ms
Audio #2
ID : 2
Format : MPEG Audio
Format version : Version 1
Format profile : Layer 3
Mode : Joint stereo
Mode extension : MS Stereo
Codec ID : 55
Codec ID/Hint : MP3
Duration : 23mn 27s
Bit rate mode : Constant
Bit rate : 128 Kbps
Channel(s) : 2 channels
Sampling rate : 48.0 KHz
Compression mode : Lossy
Stream size : 21.5 MiB (8%)
Alignment : Aligned on interleaves
Interleave, duration : 40 ms (1.00 video frame)
Interleave, preload duration : 504 ms
-

Примечание

Это как "Офис", только про супермаркет.
п.с. мы только "набиваем руку", все впереди.
-
Вне форума [Профиль] [ЛС]
Похожие темы
Форум Тема Автор Торрент Отв. Посл. сообщение
./templates/default/images/folder_dl.gif Pop (Pop, Dance)Сборник - XXXXL Супер Дискотека 90-х (2010) MP3, 224kbps RUGUI
1 | 0

0 | 1323

33

2011-08-06 01:24
RUGUI Последнее
./templates/default/images/folder_dl.gif Обучающее видео Суперздоровье. Экстремальная медицина [Система активной самообороны Булат, 2012, Здоровье, цигун, народная медицина, иммунитет, DVDRip, RUS] (Видеоурок) Omen
1 | 0

0 | 4356

104

2014-11-09 14:57
Omen Последнее
./templates/default/images/folder_dl.gif Строительство, Дизайн и Ремонт Журнал | Суперстройка, ремонт №2 (33) (май 2018) [PDF] }{@R0N
1 | 0

0 | 595

3

2018-06-06 21:33
}{@R0N Последнее
Показать сообщения:    
Ответить на тему

Текущее время: Сегодня 00:15

Часовой пояс: GMT + 3



Вы не можете начинать темы
Вы не можете отвечать на сообщения
Вы не можете редактировать свои сообщения
Вы не можете удалять свои сообщения
Вы не можете голосовать в опросах
Вы не можете прикреплять файлы к сообщениям
Вы не можете скачивать файлы