Сегодня идет свободное скачивание без начисления Download

В поисках Картер / Finding Carter / Сезон: 2 / Серии: 1 из 12 (Скотт Спир, Дженнифер Чэмберс Линч / Scott Speer, Jennifer Chambers Lynch) [2015, Драма, HDTVRip 720p] MVO (Etvox Film) + Original

Ответить на тему
 
Автор
Сообщение

Omen ®

Стаж: 5 лет 11 месяцев

Сообщений: 184329

Торрент-статистика

Пост 01-Фев-2016 21:00

[Цитировать]

В поисках Картер / Finding Carter
Год выпуска: 2015
Страна: США
Жанр: Драма
Продолжительность: 40
Перевод: Любительский (многоголосый закадровый) Etvox Film
Режиссёр: Скотт Спир, Дженнифер Чэмберс Линч / Scott Speer, Jennifer Chambers Lynch
В ролях: Кэтрин Прескотт, Синтия Уэтрос, Анна Джэкоби-Херон, Зак Пуллам, Алексис Денисоф, Эдди Матос, Алекс Саксон, Джесси Хендерсон, Милена Гович, Ванесса Морган, Калеб Руминер и др.
Описание: Сериал расскажет о девушке по имени Картер, которая живёт со своей матерью Лори, но вскоре узнаёт, что была похищена ещё в младенчестве, и теперь Картер предстоит вернуться к своей настоящей семье. Она старается ужиться со своими настоящими родителями и сестрой, при этом не забывая о Лори.
Сэмпл: https://yadi.sk/i/6NST9h5oo7v5c
Качество: HDTVRip 720p
Контейнер: MKV
Видео: h264, 1280x718 (16:9), 23,976 fps, 3600 Kbps
Аудио: AAC, 48.0 KHz, 2ch, 125 Kbps - Rus
Аудио 2: AAC, 48.0 KHz, 2ch, 125 Kbps - Eng
Субтитры: русские (vk.com/findingcartervk)

Список серий

2x01 - Love the Way You Lie

MediaInfo

Общее
Формат : Matroska
Версия формата : Version 4 / Version 2
Размер файла : 1,15 Гбайт
Продолжительность : 41 м.
Общий поток : 3990 Кбит/сек
Дата кодирования : UTC 2016-02-01 15:07:27
Программа кодирования : mkvmerge v7.6.0 ('Garden of Dreams') 64bit built on Feb 8 2015 13:04:34
Библиотека кодирования : libebml v1.3.1 + libmatroska v1.4.2
Видео
Идентификатор : 1
Формат : AVC
Формат/Информация : Advanced Video Codec
Профиль формата : High@L3.1
Параметр CABAC формата : Да
Параметр ReFrames формата : 3 кадра
Идентификатор кодека : V_MPEG4/ISO/AVC
Продолжительность : 41 м.
Битрейт : 3800 Кбит/сек
Ширина : 1280 пикселей
Высота : 718 пикселей
Соотношение сторон : 16:9
Режим частоты кадров : Постоянный
Частота кадров : 23,976 (24000/1001) кадра/сек
Цветовое пространство : YUV
Субдискретизация насыщенности : 4:2:0
Битовая глубина : 8 бит
Тип развёртки : Прогрессивная
Бит/(Пиксели*Кадры) : 0.172
Размер потока : 1,08 Гбайт (94%)
Заголовок : В поисках Картер (Finding Carter) 2 сезон, 1 серия - Love the Way You Lie [Etvox Film].mkv
Библиотека кодирования : x264 core 146 r2538bm 121396c
Настройки программы : cabac=1 / ref=3 / deblock=1:0:0 / analyse=0x3:0x113 / me=hex / subme=7 / psy=1 / psy_rd=1.00:0.00 / mixed_ref=1 / me_range=16 / chroma_me=1 / trellis=1 / 8x8dct=1 / cqm=0 / deadzone=21,11 / fast_pskip=1 / chroma_qp_offset=-2 / threads=4 / lookahead_threads=4 / sliced_threads=1 / slices=4 / nr=0 / decimate=1 / interlaced=0 / bluray_compat=0 / constrained_intra=0 / bframes=0 / weightp=2 / keyint=250 / keyint_min=23 / scenecut=40 / intra_refresh=0 / rc=abr / mbtree=0 / bitrate=3800 / ratetol=1.0 / qcomp=0.60 / qpmin=0 / qpmax=69 / qpstep=4 / ip_ratio=1.40 / aq=1:1.00
Default : Да
Forced : Нет
Аудио #1
Идентификатор : 2
Формат : AAC
Формат/Информация : Advanced Audio Codec
Профиль формата : LC
Идентификатор кодека : A_AAC
Продолжительность : 41 м.
Битрейт : 125 Кбит/сек
Каналы : 2 канала
Расположение каналов : Front: L R
Частота : 48,0 КГц
Частота кадров : 46,875 кадров/сек (1024 spf)
Метод сжатия : С потерями
Размер потока : 37,0 Мбайт (3%)
Заголовок : RUS (Etvox Film)
Язык : Russian
Default : Да
Forced : Нет
Аудио #2
Идентификатор : 3
Формат : AAC
Формат/Информация : Advanced Audio Codec
Профиль формата : LC
Идентификатор кодека : A_AAC
Продолжительность : 41 м.
Битрейт : 125 Кбит/сек
Каналы : 2 канала
Расположение каналов : Front: L R
Частота : 48,0 КГц
Частота кадров : 46,875 кадров/сек (1024 spf)
Метод сжатия : С потерями
Размер потока : 37,0 Мбайт (3%)
Заголовок : ENG (Original)
Язык : English
Default : Нет
Forced : Нет
Текст
Идентификатор : 4
Формат : UTF-8
Идентификатор кодека : S_TEXT/UTF8
Идентификатор кодека/Информация : UTF-8 Plain Text
Продолжительность : 40 м.
Битрейт : 118 бит/сек
Count of elements : 737
Размер потока : 35,0 Кбайт (0%)
Заголовок : RUS (vk.com/findingcartervk)
Язык : Russian
Default : Нет
Forced : Нет

Скриншоты

Вне форума [Профиль] [ЛС]
Показать сообщения:    
Ответить на тему

Текущее время: Сегодня 10:22

Часовой пояс: GMT + 3



Вы не можете начинать темы
Вы не можете отвечать на сообщения
Вы не можете редактировать свои сообщения
Вы не можете удалять свои сообщения
Вы не можете голосовать в опросах
Вы не можете прикреплять файлы к сообщениям
Вы не можете скачивать файлы