Сегодня идет свободное скачивание без начисления Download

Сотня / The 100 / Сезон: 3 / Серии: 1-2 из 16 (Дин Уайт, Джон Беринг, Милан Чейлов) [2016, Фантастика, драма, триллер, WEB-DL 720p] MVO (AlexFilm) + MVO (LostFilm) + Original + Subs Eng

Ответить на тему
 
Автор
Сообщение

Omen ®

Стаж: 5 лет 6 месяцев

Сообщений: 186946

Торрент-статистика

Пост 01-Фев-2016 18:01

[Цитировать]

Сотня / The 100- Год выпуска: 2016
Страна: США
Жанр: Фантастика, драма, триллер
Продолжительность: ~00:45:00-Перевод: Профессиональный (многоголосый закадровый) | AlexFilm
Перевод: Профессиональный (многоголосый закадровый) | LostFilm
Субтитры: English-Режиссёр: Дин Уайт, Джон Беринг, Милан Чейлов-В ролях: Элиза Тейлор-Коттер, Мари Авгеропулос, Сачин Сахель, Линдси Морган, Женевьев Бюкнер, Ричард Хэрмон, Джарод Джозеф, Челси Рейст, Крис Браунинг, Джош Ссеттуба-Описание: События в сериале начинают разворачиваться по прошествии девяносто семи лет после того как всю цивилизацию уничтожила страшная атомная война.
Высоко в космосе на орбите Земли летает большой космический корабль, именно здесь находятся те, кто выжил после страшной катастрофы. Они единственные кто пережил этот ужасный катаклизм который устроило человечество. Именно с этого последнего пристанища людей на Землю отправляют космический челнок на котором находятся сто малолетних преступников...-- by k-marat-s.-Цитата:
Quote:
работа со звуком - k-marat-s. Отдельное спасибо Михаилу Шорыгину
-Качество: WEB-DL 720p
Контейнер: MKV
Видео: 1280x718, 23.976 fps, MPEG-4 AVC, ~4169 kbps avg, 0.173 bit/pixel
Аудио: 48 kHz, AC3, 3/2 (L,C,R,l,r) + LFE ch, ~384.00 kbps avg | AlexFilm
Аудио: 48 kHz, AC3, 3/2 (L,C,R,l,r) + LFE ch, ~384.00 kbps avg | LostFilm
Аудио: 48 kHz, AC3, 3/2 (L,C,R,l,r) + LFE ch, ~384.00 kbps avg-

Список серий

01. Ван'эда, Часть 1 / Wanheda: Part One02. Ван'эда, Часть 2 / Wanheda: Part Two03. Всяк сюда входящий / Ye Who Enter Here
-

MediaInfo

Уникальный идентификатор : 175153810093098299382743365513488216712 (0x83C56592ED5DBB8BB052825E2FD5B288)Полное имя : G:\Movies\The 100 (Season 3) 720p WEB-DL\The.100.S03E01.720p.WEB-DL.Rus.Eng.HDCLUB.mkvФормат : MatroskaВерсия формата : Version 4 / Version 2Размер файла : 1,50 ГбайтПродолжительность : 42 м.Общий поток : 5067 Кбит/секНазвание фильма : The 100 3x01 (2016) - Release kmarats for HDCLUBДата кодирования : UTC 2016-01-30 09:59:36Программа кодирования : mkvmerge v7.9.0 ('Birds') 64bitБиблиотека кодирования : libebml v1.3.1 + libmatroska v1.4.2
ВидеоИдентификатор : 1Формат : AVCФормат/Информация : Advanced Video CodecПрофиль формата : High@L3.1Параметр CABAC формата : НетПараметр ReFrames формата : 2 кадраИдентификатор кодека : V_MPEG4/ISO/AVCПродолжительность : 42 м.Битрейт : 3814 Кбит/секШирина : 1280 пикселейВысота : 718 пикселейСоотношение сторон : 16:9Режим частоты кадров : ПостоянныйЧастота кадров : 23,976 кадра/секЦветовое пространство : YUVСубдискретизация насыщенности : 4:2:0Битовая глубина : 8 битТип развёртки : ПрогрессивнаяБит/(Пиксели*Кадры) : 0.173Размер потока : 1,13 Гбайт (75%)Заголовок : The 100 3x01 (2016) - Release kmarats for HDCLUBЯзык : EnglishDefault : ДаForced : Нетcolour_range : LimitedОсновные цвета : BT.709Характеристики трансфера : BT.709Коэффициенты матрицы : BT.709
Аудио #1Идентификатор : 2Формат : AC-3Формат/Информация : Audio Coding 3Расширение режима : CM (complete main)Параметр Endianness формата : BigИдентификатор кодека : A_AC3Продолжительность : 42 м.Вид битрейта : ПостоянныйБитрейт : 384 Кбит/секКаналы : 6 каналовРасположение каналов : Front: L C R, Side: L R, LFEЧастота : 48,0 КГцЧастота кадров : 31,250 кадров/сек (1536 spf)Метод сжатия : С потерямиРазмер потока : 117 Мбайт (8%)Заголовок : AlexFilmЯзык : RussianDefault : ДаForced : Нет
Аудио #2Идентификатор : 3Формат : AC-3Формат/Информация : Audio Coding 3Расширение режима : CM (complete main)Параметр Endianness формата : BigИдентификатор кодека : A_AC3Продолжительность : 42 м.Вид битрейта : ПостоянныйБитрейт : 384 Кбит/секКаналы : 6 каналовРасположение каналов : Front: L C R, Side: L R, LFEЧастота : 48,0 КГцЧастота кадров : 31,250 кадров/сек (1536 spf)Метод сжатия : С потерямиРазмер потока : 117 Мбайт (8%)Заголовок : LostFilmЯзык : RussianDefault : НетForced : Нет
Аудио #3Идентификатор : 4Формат : AC-3Формат/Информация : Audio Coding 3Расширение режима : CM (complete main)Параметр Endianness формата : BigИдентификатор кодека : A_AC3Продолжительность : 42 м.Вид битрейта : ПостоянныйБитрейт : 384 Кбит/секКаналы : 6 каналовРасположение каналов : Front: L C R, Side: L R, LFEЧастота : 48,0 КГцЧастота кадров : 31,250 кадров/сек (1536 spf)Метод сжатия : С потерямиРазмер потока : 117 Мбайт (8%)Заголовок : EnglishЯзык : EnglishDefault : НетForced : Нет
ТекстИдентификатор : 5Формат : UTF-8Идентификатор кодека : S_TEXT/UTF8Идентификатор кодека/Информация : UTF-8 Plain TextЗаголовок : eng-subЯзык : EnglishDefault : НетForced : Нет
-

Скриншоты

-

Внимание! Раздача ведётся путём добавления новых серий

Внимание! Раздача ведётся путём добавления новых серий; при каждом добавлении создаётся новый торрент. Чтобы начать докачку новой серии, пользователям необходимо сделать следующее:
(1) остановить скачивание,
(2) удалить старый торрент у себя из клиента (старые серии удалять не надо),
(3) скачать новый торрент и запустить его у себя в клиенте вместо старого, при этом указать клиенту путь в старую папку куда и должно происходить скачивание новых серий.
Ваш клиент при этом должен произвести хеширование (проверку) старой папки (если не производит сам - помогите ему сделать это), и будет докачивать только те серии которых у вас ещё нет. Старые серии при этом не удаляются, а продолжают раздаваться!
Eсли вы уже удалили старые серии, то предотвратить повторную закачку старых серий можно, отжав галочку в соответствующих местах при запуске нового торрента. По возможности, желательно не удалять старые серии как можно дольше чтобы релизёр не столько продолжал раздавать старые серии, а смог сконцентрироваться на новых.
Вне форума [Профиль] [ЛС]
Показать сообщения:    
Ответить на тему

Текущее время: Сегодня 06:03

Часовой пояс: GMT + 3



Вы не можете начинать темы
Вы не можете отвечать на сообщения
Вы не можете редактировать свои сообщения
Вы не можете удалять свои сообщения
Вы не можете голосовать в опросах
Вы не можете прикреплять файлы к сообщениям
Вы не можете скачивать файлы