Сегодня идет свободное скачивание без начисления Download

Тайны Лауры / The Mysteries of Laura / Сезон: 2 / Серии: 1-10 (13) (Jeff Rake) [2015, детектив, комедия, HDTVRip-AVC] Original + Rus Subs

Ответить на тему
 
Автор
Сообщение

Omen ®

Стаж: 6 лет 1 месяц

Сообщений: 184308

Торрент-статистика

Пост 01-Фев-2016 15:00

[Цитировать]

Тайны Лауры / The Mysteries of Laura
Год выпуска: 2015
Страна: США
Жанр: детектив, комедия
Продолжительность: ~43 мин
Перевод: Субтитры(kiitos)
Перевод: dimambo
Режиссёр: Jeff Rake
В ролях: Дебра Мессинг, Джош Лукас, Лас Алонсо, Янина Гаванкар, Илана Бекер, Мерли Бермудез, Лайла Элиз, Дэн Финнерти
Описание: Лора Даймонд — блестящий детектив из отдела убийств департамента полиции Нью-Йорка. Каждый день ей приходится справляться не только со своей нелегкой работой, но и с сумасшедшей семейной жизнью — у нее двое непослушных мальчиков-близнецов и муж-полицейский, с которым они вот-вот должны развестись.
Качество: HDTVRip
Формат: MP4
Видео: AVC, 720x404 (16:9), 23.976 fps, 820 kbps
Аудио: AAC, 48 kHz, 2 ch, 121 Kbps
Субтитры: есть
Сэмпл
Добавлена 10 серия. Торрент обновлен 01.02.2016

MediaInfo

General
Format : MPEG-4
Format profile : Base Media
Codec ID : isom
File size : 304 MiB
Duration : 42mn 59s
Overall bit rate mode : Variable
Overall bit rate : 989 Kbps
Encoded date : UTC 2015-09-23 19:51:22
Tagged date : UTC 2015-09-23 19:51:22
Video
ID : 1
Format : AVC
Format/Info : Advanced Video Codec
Format profile : High@L3.1
Format settings, CABAC : Yes
Format settings, ReFrames : 5 frames
Codec ID : avc1
Codec ID/Info : Advanced Video Coding
Duration : 42mn 59s
Source duration : 42mn 59s
Bit rate : 820 Kbps
Maximum bit rate : 5 751 Kbps
Width : 720 pixels
Height : 404 pixels
Display aspect ratio : 16:9
Frame rate mode : Constant
Frame rate : 23.976 fps
Color space : YUV
Chroma subsampling : 4:2:0
Bit depth : 8 bits
Scan type : Progressive
Bits/(Pixel*Frame) : 0.118
Stream size : 252 MiB (83%)
Source stream size : 266 MiB (87%)
Writing library : x264 core 148 r2597 e86f3a1
Encoding settings : cabac=1 / ref=5 / deblock=1:1:1 / analyse=0x3:0x133 / me=umh / subme=9 / psy=1 / psy_rd=1.00:0.00 / mixed_ref=1 / me_range=16 / chroma_me=1 / trellis=2 / 8x8dct=1 / cqm=0 / deadzone=21,11 / fast_pskip=0 / chroma_qp_offset=-2 / threads=24 / lookahead_threads=2 / sliced_threads=0 / nr=0 / decimate=1 / interlaced=0 / bluray_compat=0 / constrained_intra=0 / bframes=3 / b_pyramid=2 / b_adapt=2 / b_bias=0 / direct=3 / weightb=1 / open_gop=0 / weightp=2 / keyint=250 / keyint_min=23 / scenecut=40 / intra_refresh=0 / rc_lookahead=60 / rc=crf / mbtree=1 / crf=19.0 / qcomp=0.60 / qpmin=0 / qpmax=69 / qpstep=4 / ip_ratio=1.40 / aq=1:1.00
Encoded date : UTC 2015-09-23 18:16:54
Tagged date : UTC 2015-09-23 19:51:24
Matrix coefficients : BT.709
Audio
ID : 2
Format : AAC
Format/Info : Advanced Audio Codec
Format profile : LC
Codec ID : 40
Duration : 42mn 59s
Bit rate mode : Variable
Bit rate : 121 Kbps
Maximum bit rate : 150 Kbps
Channel(s) : 2 channels
Channel positions : Front: L R
Sampling rate : 48.0 KHz
Compression mode : Lossy
Stream size : 37.2 MiB (12%)
Encoded date : UTC 2015-09-23 19:51:23
Tagged date : UTC 2015-09-23 19:51:24

Внимание! Раздача ведётся путём добавления новых серий

Внимание! Раздача ведётся путём добавления новых серий; при каждом добавлении создётся новый торрент. Чтобы начать докачку новой серии, пользователям необходимо сделать следующее:
(1) остановить скачивание,
(2) удалить старый торрент у себя из клиента (старые серии удалять не надо),
(3) скачать новый торрент и запустить его у себя в клиенте вместо старого, при этом указать клиенту путь в старую папку куда и должно происходить скачивание новых серий.
Ваш клиент при этом должен произвести хеширование (проверку) старой папки (если не производит сам - помогите ему сделать это), и будет докачивать только те серии которых у вас ещё нет. Старые серии при этом не удаляются, а продолжают раздаваться!
Eсли вы уже удалили старые серии, то предотвратить повторную закачку старых серий можно, отжав галочку в соответсвующих местах при запуске нового торрента.

Скриншоты

Вне форума [Профиль] [ЛС]
Похожие темы
Форум Тема Автор Торрент Отв. Посл. сообщение
./templates/default/images/folder_dl.gif Приключения и квесты Secrets of the Dark: The Flower of Shadow Collector\'s Edition / Тайны Тьмы: Цветок Теней. Коллекционное издание [P] [RUS / ENG] (2014) Omen
4 | 0

0 | 1533

21

2015-06-11 12:04
Omen Последнее
Показать сообщения:    
Ответить на тему

Текущее время: Сегодня 02:20

Часовой пояс: GMT + 3



Вы не можете начинать темы
Вы не можете отвечать на сообщения
Вы не можете редактировать свои сообщения
Вы не можете удалять свои сообщения
Вы не можете голосовать в опросах
Вы не можете прикреплять файлы к сообщениям
Вы не можете скачивать файлы