Сегодня идет свободное скачивание без начисления Download

Оттенки синего / Shades of Blue / Сезон: 1 / Серии: 1-4 из 13 (Дэн Лернер, Милисент Шелтон, Бэрри Левинсон) [2016, Драма, детектив, WEB-DLRip] MVO (BaibaKo) + Original

Ответить на тему
 
Автор
Сообщение

Omen ®

Стаж: 5 лет 8 месяцев

Сообщений: 184433

Торрент-статистика

Пост 01-Фев-2016 06:03

[Цитировать]

ОТТЕНКИ СИНЕГОShades of Blue- Год выпуска: 2016
Страна: США
Жанр: Драма, детектив
Продолжительность: ~00:42:00-Перевод: Профессиональный (многоголосый закадровый) BaibaKo
Режиссёр: Дэн Лернер, Милисент Шелтон, Бэрри Левинсон
В ролях: Дженнифер Лопес, Рэй Лиотта, Дреа Де Маттео, Уоррен Коул, Дайо Окенийи, Сара Джеффри, Линн Марокола, Лесли Силва, Кэтрин Кейтс, Дин Гейер-Описание: Новый криминальный сериал, Оттенки синего, от американского режиссера Барри Левинсона, отчаянно ожидают все поклонники творчества знаменитой Дженнифер Лопес, которая сыграет одну из главных ролей в картине. Проект стал востребованным еще до выхода в свет, больше того, его появления ожидают миллионы телезрителей. Главной героиней сериала оказалась Харли Маккорд. Она мать-одиночка и воспитывает единственную дочь самостоятельно. Однажды главной героине подвернулась выгодная сделка, на которую она быстро соглашается. Ведь после успешного проведения операции Харли получит огромный гонорар. Но все пошло не по плану и после очередной сделки женщина понимает, что попала под слежку ФБР.
Вскоре они начинают давить и угрожать взяточнице и та должна принять их условия, для того, чтобы не попасть за решетку. Главная героиня должна следить за своими же сотрудниками и докладывать о каждом визите, отслеживать возможные финансовые махинации. Так, из за собственных ошибок Харли стала настоящей предательницей. Ведь ради благополучия своего ребенка женщина даже готова переступить моральные принципы и участвовать в межведомственных интригах...-Доп. информация: Без рекламных ВидеоАудио вставок-Сэмпл-Качество: WEB-DLRip
Формат: AVI
Видео: XviD, 720x400 (16:9), 23,976 fps, ~1500 kbps
Аудио: Rus. MP3, 48 kHz, 2 ch, 128 kbps
Аудио: Eng. MP3, 48 kHz, 2 ch, 128 kbps
Субтитры: отсутствуют

Список серий

01. Pilot
02. Первородный грех
03. Лживый Вид, Лживое Сердце False Face, False Heart
04. Кто мне расскажет, кем я стал Who Is It that Can Tell Me Who I

MediaInfo

Код:
Полное имя                               : Shades.of.Blue.S01.WEB-DLRip.RusEng.BibaKo\Shades.of.Blue.S01E02.WEB-DLRip.RusEng.BibaKo.L.avi
Формат                                   : AVI
Формат/Информация                        : Audio Video Interleave
Размер файла                             : 550 Мбайт
Продолжительность                        : 42 м.
Общий поток                              : 1804 Кбит/сек
Программа кодирования                    : VirtualDubMod 1.5.10.3 (build 2550/release)
Библиотека кодирования                   : VirtualDubMod build 2550/release
Видео
Идентификатор                            : 0
Формат                                   : MPEG-4 Visual
Профиль формата                          : Advanced Simple@L5
Параметр BVOP формата                    : 1
Параметр QPel формата                    : Нет
Параметр GMC формата                     : Без точки перехода
Параметр матрицы формата                 : Default (H.263)
Идентификатор кодека                     : XVID
Идентификатор кодека/Подсказка           : XviD
Продолжительность                        : 42 м.
Битрейт                                  : 1534 Кбит/сек
Ширина                                   : 720 пикселей
Высота                                   : 400 пикселей
Соотношение сторон                       : 16:9
Частота кадров                           : 23,976 кадра/сек
Цветовое пространство                    : YUV
Субдискретизация насыщенности            : 4:2:0
Битовая глубина                          : 8 бит
Тип развёртки                            : Прогрессивная
Метод сжатия                             : С потерями
Бит/(Пиксели*Кадры)                      : 0.222
Размер потока                            : 468 Мбайт (85%)
Библиотека кодирования                   : XviD 73
Аудио #1
Идентификатор                            : 1
Формат                                   : MPEG Audio
Версия формата                           : Version 1
Профиль формата                          : Layer 3
Режим                                    : Joint stereo
Расширение режима                        : MS Stereo
Идентификатор кодека                     : 55
Идентификатор кодека/Подсказка           : MP3
Продолжительность                        : 42 м.
Вид битрейта                             : Постоянный
Битрейт                                  : 128 Кбит/сек
Каналы                                   : 2 канала
Частота                                  : 48,0 КГц
Метод сжатия                             : С потерями
Размер потока                            : 39,0 Мбайт (7%)
Выравнивание                             : Соединение по промежуткам
Продолжительность промежутка             : 42  мс. (1,00 видеокадр)
Время предзагрузки промежутка            : 504  мс.
Аудио #2
Идентификатор                            : 2
Формат                                   : MPEG Audio
Версия формата                           : Version 1
Профиль формата                          : Layer 3
Режим                                    : Joint stereo
Расширение режима                        : MS Stereo
Идентификатор кодека                     : 55
Идентификатор кодека/Подсказка           : MP3
Продолжительность                        : 42 м.
Вид битрейта                             : Постоянный
Битрейт                                  : 128 Кбит/сек
Каналы                                   : 2 канала
Частота                                  : 48,0 КГц
Метод сжатия                             : С потерями
Размер потока                            : 39,0 Мбайт (7%)
Выравнивание                             : Соединение по промежуткам
Продолжительность промежутка             : 42  мс. (1,00 видеокадр)
Время предзагрузки промежутка            : 504  мс.
[/spoiler]

Скриншоты

Внимание! Раздача ведётся путём добавления новых серий

Внимание! Раздача ведётся путём добавления новых серий; при каждом добавлении создаётся новый торрент. Чтобы начать докачку новой серии, пользователям необходимо сделать следующее:
(1) остановить скачивание,
(2) удалить старый торрент у себя из клиента (старые серии удалять не надо),
(3) скачать новый торрент и запустить его у себя в клиенте вместо старого, при этом указать клиенту путь в старую папку куда и должно происходить скачивание новых серий.
Ваш клиент при этом должен произвести хеширование (проверку) старой папки (если не производит сам - помогите ему сделать это), и будет докачивать только те серии которых у вас ещё нет. Старые серии при этом не удаляются, а продолжают раздаваться!
Eсли вы уже удалили старые серии, то предотвратить повторную закачку старых серий можно, отжав галочку в соответствующих местах при запуске нового торрента. По возможности, желательно не удалять старые серии как можно дольше чтобы релизёр не столько продолжал раздавать старые серии, а смог сконцентрироваться на новых.
Вне форума [Профиль] [ЛС]
Похожие темы
Форум Тема Автор Торрент Отв. Посл. сообщение
./templates/default/images/folder_dl.gif Обучающее видео Ирина Калмыкова | Урок №10. "Устранение паразитных оттенков" (2015) PCRec [H.264] Omen
1 | 0

0 | 2621

24

2015-10-12 00:17
Omen Последнее
Показать сообщения:    
Ответить на тему

Текущее время: Сегодня 22:10

Часовой пояс: GMT + 3



Вы не можете начинать темы
Вы не можете отвечать на сообщения
Вы не можете редактировать свои сообщения
Вы не можете удалять свои сообщения
Вы не можете голосовать в опросах
Вы не можете прикреплять файлы к сообщениям
Вы не можете скачивать файлы